<?xml version="1.0" standalone="no"?>
<!DOCTYPE svg PUBLIC "-//W3C//DTD SVG 1.1//EN" "http://www.w3.org/Graphics/SVG/1.1/DTD/svg11.dtd" >
<svg xmlns="http://www.w3.org/2000/svg" xmlns:xlink="http://www.w3.org/1999/xlink" version="1.1">
<metadata>
Created by FontForge 20200314 at Thu Oct 29 09:17:59 2020
 By Jason Otero
Copyright (c) Font Awesome
</metadata>
<!-- Font Awesome Pro 6.0.0-alpha1 by @fontawesome - https://fontawesome.com License - https://fontawesome.com/license (Commercial License) --><defs>
<font id="FontAwesome6Duotone-Solid" horiz-adv-x="512" >
  <font-face 
    font-family="Font Awesome 6 Duotone Solid"
    font-weight="900"
    font-stretch="normal"
    units-per-em="512"
    panose-1="2 0 5 3 0 0 0 0 0 0"
    ascent="448"
    descent="-64"
    bbox="-83.75 -96 640.677 497.5"
    underline-thickness="25"
    underline-position="-50"
    unicode-range="U+0020-10F8FF"
  />
    <missing-glyph />
    <glyph glyph-name="caravan-simple-primary" unicode="&#xe000;" horiz-adv-x="640" 
d="M624 96c9 0 16 -7 16 -16v-32c0 -9 -7 -16 -16 -16h-313c-4 62 -55 112 -119 112s-115 -50 -119 -112h-9c-35 0 -64 29 -64 64v256c0 35 29 64 64 64h352c88 0 160 -72 160 -160v-160h48zM256 224v64c0 18 -14 32 -32 32h-128c-18 0 -32 -14 -32 -32v-64
c0 -18 14 -32 32 -32h128c18 0 32 14 32 32zM448 224v64c0 18 -14 32 -32 32h-64c-18 0 -32 -14 -32 -32v-64c0 -18 14 -32 32 -32h64c18 0 32 14 32 32z" />
    <glyph glyph-name="cat-space-primary" unicode="&#xe001;" horiz-adv-x="640" 
d="M292 254c16 -72 79 -126 156 -126c11 0 21 1 32 3v-179c0 -9 -7 -16 -16 -16h-32c-9 0 -16 7 -16 16v144l-128 -96h32c18 0 32 -14 32 -32v-16c0 -9 -7 -16 -16 -16h-176c-35 0 -64 29 -64 64v256c0 18 -14 32 -32 32s-32 14 -32 32s14 32 32 32c53 0 96 -43 96 -96v-86
c40 60 96 78 132 84v0zM480 336l64 64v-128c0 -53 -43 -96 -96 -96s-96 43 -96 96v128l64 -64h64zM408 256c9 0 16 7 16 16s-7 16 -16 16s-16 -7 -16 -16s7 -16 16 -16v0zM488 256c9 0 16 7 16 16s-7 16 -16 16s-16 -7 -16 -16s7 -16 16 -16v0z" />
    <glyph glyph-name="coffee-pot-primary" unicode="&#xe002;" 
d="M130 128h316c2 -11 2 -20 2 -25c0 -28 -8 -47 -30 -71h-260c-22 24 -30 43 -30 71c0 5 0 14 2 25zM432 272h-288l-27 80h-13c-22 0 -40 -18 -40 -40v-72c0 -9 -7 -16 -16 -16h-32c-9 0 -16 7 -16 16v88c0 49 39 88 88 88h392z" />
    <glyph glyph-name="comet-primary" unicode="&#xe003;" 
d="M315 148l-50 -50l12 -69c1 -6 -2 -12 -6 -15c-5 -4 -11 -4 -17 -1l-62 32l-63 -32c-11 -7 -24 3 -22 16l12 69l-50 50c-5 4 -6 10 -4 15c1 6 6 10 12 11l70 10l31 64c3 5 8 8 14 8s11 -3 14 -8l31 -64l70 -10c6 -1 10 -5 12 -11c2 -5 0 -11 -4 -15z" />
    <glyph glyph-name="fan-table-primary" unicode="&#xe004;" horiz-adv-x="448" 
d="M224 448c115 0 208 -93 208 -208c0 -104 -76 -190 -176 -205v-35h-64v35c-100 15 -176 101 -176 205c0 115 93 208 208 208zM379 199c5 3 7 8 7 14c0 37 -21 70 -55 86c-33 15 -73 10 -101 -14l-37 99c-2 8 -14 17 -27 10c-21 -13 -37 -33 -44 -58c-9 -35 3 -92 60 -113
l-68 -81c-9 -12 -1 -25 6 -29c45 -26 103 -10 129 35c11 19 15 42 10 64l105 -18c5 0 11 1 15 5z" />
    <glyph glyph-name="faucet-primary" unicode="&#xe005;" 
d="M352 192c90 0 160 -70 160 -160c0 -19 -13 -32 -32 -32h-64c-19 0 -32 13 -32 32s-13 32 -32 32h-13c-19 -38 -64 -64 -115 -64s-96 26 -115 64h-93c-10 0 -16 6 -16 16v96c0 10 6 16 16 16h118c16 13 36 22 58 29v48l32 3l32 -3v-48c22 -7 42 -16 58 -29h38zM256 339
l-32 -3l-32 3v29c0 10 6 16 16 16h32c10 0 16 -6 16 -16v-29z" />
    <glyph glyph-name="faucet-drip-primary" unicode="&#xe006;" 
d="M352 256c90 0 160 -70 160 -160c0 -19 -13 -32 -32 -32h-64c-19 0 -32 13 -32 32s-13 32 -32 32h-13c-19 -38 -64 -64 -115 -64s-96 26 -115 64h-93c-10 0 -16 6 -16 16v96c0 10 6 16 16 16h118c16 13 36 22 58 29v48l32 3l32 -3v-48c22 -7 42 -16 58 -29h38zM256 403
l-32 -3l-32 3v29c0 10 6 16 16 16h32c10 0 16 -6 16 -16v-29z" />
    <glyph glyph-name="galaxy-primary" unicode="&#xe008;" 
d="M446 356c19 -11 36 -25 50 -43c9 -11 -3 -27 -17 -21c-23 9 -49 12 -74 8c-14 7 -29 13 -45 16c-34 7 -69 5 -102 -7c4 24 13 46 27 65c53 18 113 12 161 -18zM228 10c-53 -18 -113 -12 -162 18c-18 11 -35 26 -49 43c-9 11 3 27 16 21c24 -9 50 -12 74 -8
c15 -7 30 -13 46 -16c34 -7 69 -5 102 7c-4 -24 -13 -46 -27 -65zM374 190c24 -3 46 -13 64 -27c18 -53 13 -113 -17 -161c-12 -19 -26 -35 -43 -49c-11 -9 -27 2 -22 16c10 24 12 49 9 74c7 14 12 29 15 45c7 34 5 70 -6 102zM139 194c-24 3 -46 13 -64 27
c-18 53 -13 113 17 161c12 19 26 35 43 49c11 9 27 -2 22 -16c-10 -24 -12 -49 -9 -74c-7 -14 -12 -29 -16 -45c-7 -34 -4 -70 7 -102z" />
    <glyph glyph-name="garage-primary" unicode="&#xe009;" horiz-adv-x="640" 
d="M128 -64v160h384v-160h-384zM272 32c-9 0 -16 -7 -16 -16s7 -16 16 -16h96c9 0 16 7 16 16s-7 16 -16 16h-96zM128 128v96h384l-1 -96h-383z" />
    <glyph glyph-name="garage-car-primary" unicode="&#xe00a;" horiz-adv-x="640" 
d="M469 99c16 -6 27 -22 27 -40v-97c0 -14 -12 -26 -26 -26h-13c-15 0 -26 12 -26 26v22h-222v-22c0 -14 -11 -26 -26 -26h-13c-14 0 -26 12 -26 26v97c0 18 11 34 27 40l22 65c9 26 33 44 61 44h132c28 0 52 -18 61 -44zM239 149l-18 -53h198l-18 53c-2 7 -8 11 -15 11
h-132c-7 0 -13 -4 -15 -11zM216 16c13 0 24 11 24 24s-11 24 -24 24s-24 -11 -24 -24s11 -24 24 -24zM424 16c13 0 24 11 24 24s-11 24 -24 24s-24 -11 -24 -24s11 -24 24 -24z" />
    <glyph glyph-name="garage-open-primary" unicode="&#xe00b;" horiz-adv-x="640" 
d="M128 160v64h384l-1 -64h-383zM469 99c16 -6 27 -22 27 -40v-97c0 -14 -12 -26 -26 -26h-13c-15 0 -26 12 -26 26v22h-222v-22c0 -14 -11 -26 -26 -26h-13c-14 0 -26 12 -26 26v97c0 18 11 34 27 40l10 29h51l-11 -32h198l-11 32h51zM216 16c13 0 24 11 24 24
s-11 24 -24 24s-24 -11 -24 -24s11 -24 24 -24zM424 16c13 0 24 11 24 24s-11 24 -24 24s-24 -11 -24 -24s11 -24 24 -24z" />
    <glyph glyph-name="heat-primary" unicode="&#xe00c;" horiz-adv-x="448" 
d="M104 192c36 -40 56 -92 56 -146v-62c0 -9 -7 -16 -16 -16h-32c-9 0 -16 7 -16 16v62c0 38 -14 75 -39 103c-37 40 -57 93 -57 147v40c0 9 7 16 16 16h32c9 0 16 -7 16 -16v-40c0 -38 14 -75 40 -104zM392 192c36 -40 56 -92 56 -146v-62c0 -9 -7 -16 -16 -16h-32
c-9 0 -16 7 -16 16v62c0 38 -14 75 -39 103c-37 40 -57 93 -57 147v40c0 9 7 16 16 16h32c9 0 16 -7 16 -16v-40c0 -38 14 -75 40 -104z" />
    <glyph glyph-name="house-primary" unicode="&#xe00d;" horiz-adv-x="576" 
d="M565 216c7 -6 11 -15 11 -24c0 -7 -3 -15 -8 -21c-6 -7 -15 -11 -24 -11c-7 0 -15 3 -21 8l-235 205l-235 -205c-6 -5 -14 -8 -21 -8c-9 0 -18 4 -24 11c-5 6 -8 14 -8 21c0 9 4 18 11 24l256 224c6 5 13 8 21 8s15 -3 21 -8l107 -94v54c0 9 7 16 16 16h64
c9 0 16 -7 16 -16v-137z" />
    <glyph glyph-name="house-day-primary" unicode="&#xe00e;" horiz-adv-x="640" 
d="M216 272v0c0 -22 -18 -40 -40 -40v0v0c-22 0 -40 18 -40 40v0v0c0 22 18 40 40 40v0v0c22 0 40 -18 40 -40zM301 396c3 -3 4 -7 2 -12l-23 -69l13 -6l-46 -43c1 2 1 4 1 6v0v0c0 40 -32 72 -72 72v0v0c-40 0 -72 -32 -72 -72v0v0c0 -40 32 -72 72 -72l-27 -25
c-5 -4 -9 -10 -12 -15l-4 8l-69 -23c-5 -2 -9 -1 -13 3c-3 3 -4 7 -2 12l23 69l-65 32c-5 2 -7 6 -7 11v0c0 5 2 9 7 11l65 32l-23 69c-2 5 -1 9 3 13c3 3 7 4 12 2l69 -23l32 65c2 5 6 7 11 7v0c5 0 9 -2 11 -7l32 -65l69 23c5 2 9 1 13 -3z" />
    <glyph glyph-name="house-person-leave-primary" unicode="&#xe00f;" horiz-adv-x="640" 
d="M394 62l21 52c8 -12 -8 6 47 -54l-14 -34c-3 -8 -8 -15 -14 -21l-59 -60c-13 -12 -32 -11 -45 1c-12 12 -12 32 0 44l50 51c6 6 11 13 14 21zM623 203c15 -8 22 -27 14 -43c-4 -8 -10 -13 -18 -16s-17 -2 -24 2l-24 11c-15 8 -26 21 -31 37l-6 17l-17 -69l45 -49
c8 -8 13 -18 15 -28l22 -89c5 -17 -6 -35 -23 -39s-34 6 -39 23l-18 74c-2 10 -8 19 -15 27l-60 66c-14 16 -20 38 -15 58l16 61l-27 -11c-7 -3 -13 -8 -17 -15l-6 -14c-4 -7 -11 -13 -19 -16c-8 -2 -16 -2 -24 2c-16 8 -22 27 -14 43l7 14c10 21 28 37 49 46
c38 15 58 25 94 25c46 0 87 -31 102 -76l9 -29zM528 352c-26 0 -48 21 -48 48c0 26 21 48 48 48s48 -22 48 -48c0 -27 -21 -48 -48 -48z" />
    <glyph glyph-name="house-night-primary" unicode="&#xe010;" horiz-adv-x="640" 
d="M194 274c2 0 4 -1 5 -3c2 -1 1 -4 0 -5c-21 -27 -53 -42 -87 -42c-62 0 -112 50 -112 112s50 112 112 112c7 0 14 -1 21 -2c2 0 3 -2 4 -4c0 -2 -1 -4 -3 -6c-37 -21 -54 -66 -39 -106s57 -64 99 -56zM317 389c2 -1 3 -3 3 -5s-1 -4 -3 -5l-40 -16l-16 -40
c-1 -2 -3 -3 -5 -3s-4 1 -5 3l-16 40l-40 16c-2 1 -3 3 -3 5s1 4 3 5l40 16l16 40c1 2 3 3 5 3s4 -1 5 -3l16 -40zM117 85l40 -16c2 -1 3 -3 3 -5s-1 -4 -3 -5l-40 -16l-16 -40c-1 -2 -3 -3 -5 -3s-4 1 -5 3l-16 40l-40 16c-2 1 -3 3 -3 5s1 4 3 5l40 16l16 40c1 2 3 3 5 3
s4 -1 5 -3z" />
    <glyph glyph-name="house-person-return-primary" unicode="&#xe011;" horiz-adv-x="640" 
d="M531 185c5 -20 0 -42 -15 -58l-60 -66c-7 -8 -12 -17 -15 -27l-18 -74c-4 -17 -21 -27 -39 -23c-17 4 -27 22 -23 39l22 89c3 10 8 20 15 27l46 50l-18 69l-5 -17c-5 -16 -17 -29 -32 -37l-23 -11c-8 -4 -16 -5 -24 -2s-15 8 -19 16c-7 16 -1 35 15 43l23 12l10 29
c14 45 55 76 102 76c36 0 56 -10 93 -25c22 -9 40 -25 50 -46l7 -14c8 -16 1 -35 -14 -43c-8 -4 -17 -4 -25 -2c-8 3 -14 9 -18 16l-7 14c-3 7 -9 12 -16 15l-27 11zM432 352c-26 0 -48 22 -48 48s22 48 48 48c27 0 48 -21 48 -48s-21 -48 -48 -48zM631 -9
c12 -13 12 -33 -1 -45c-12 -12 -32 -13 -44 -1l-60 60c-6 6 -11 13 -14 21l-13 34c55 60 38 42 47 54l21 -52c3 -8 8 -15 14 -21z" />
    <glyph glyph-name="house-signal-primary" unicode="&#xe012;" horiz-adv-x="640" 
d="M0 128c106 0 192 -86 192 -192h-64c0 71 -57 128 -128 128v64zM0 32c53 0 96 -43 96 -96h-96v96zM0 224c159 0 288 -129 288 -288h-64c0 124 -100 224 -224 224v64z" />
    <glyph glyph-name="lamp-desk-primary" unicode="&#xe014;" 
d="M320 0c28 0 55 -18 63 -44c3 -10 -5 -20 -15 -20h-352c-10 0 -19 10 -15 20c8 26 35 44 63 44h256zM494 385c16 0 24 -19 13 -31l-221 -221c-11 -11 -30 -3 -30 13v148l-45 45c-25 25 -25 65 0 90s65 25 90 1l45 -45h148z" />
    <glyph glyph-name="lamp-floor-primary" unicode="&#xe015;" horiz-adv-x="384" 
d="M256 0c28 0 55 -18 63 -44c3 -10 -5 -20 -15 -20h-224c-10 0 -19 10 -15 20c8 26 35 44 63 44h128zM381 269c5 -10 4 -22 -2 -31s-16 -14 -27 -14h-320c-11 0 -21 5 -27 14s-7 21 -2 31l68 160c5 11 17 19 30 19h182c13 0 25 -8 30 -19z" />
    <glyph glyph-name="light-ceiling-primary" unicode="&#xe016;" 
d="M512 67v-3c0 -19 -13 -32 -32 -32h-448c-19 0 -32 13 -32 32v3c16 128 128 221 256 221s240 -93 256 -221z" />
    <glyph glyph-name="light-switch-primary" unicode="&#xe017;" horiz-adv-x="384" 
d="M320 448c35 0 64 -29 64 -64v-384c0 -35 -29 -64 -64 -64h-256c-35 0 -64 29 -64 64v384c0 35 29 64 64 64h256zM192 416c-9 0 -16 -7 -16 -16s7 -16 16 -16s16 7 16 16s-7 16 -16 16zM192 -32c9 0 16 7 16 16s-7 16 -16 16s-16 -7 -16 -16s7 -16 16 -16zM288 80v224
c0 26 -22 48 -48 48h-96c-26 0 -48 -22 -48 -48v-224c0 -26 22 -48 48 -48h96c26 0 48 22 48 48z" />
    <glyph glyph-name="light-switch-off-primary" unicode="&#xe018;" horiz-adv-x="384" 
d="M320 448c35 0 64 -29 64 -64v-384c0 -35 -29 -64 -64 -64h-256c-35 0 -64 29 -64 64v384c0 35 29 64 64 64h256zM192 416c-9 0 -16 -7 -16 -16s7 -16 16 -16s16 7 16 16s-7 16 -16 16zM192 -32c9 0 16 7 16 16s-7 16 -16 16s-16 -7 -16 -16s7 -16 16 -16zM288 160v144
c0 26 -22 48 -48 48h-96c-26 0 -48 -22 -48 -48v-224c0 -26 22 -48 48 -48h96c26 0 48 22 48 48v80z" />
    <glyph glyph-name="light-switch-on-primary" unicode="&#xe019;" horiz-adv-x="384" 
d="M320 448c35 0 64 -29 64 -64v-384c0 -35 -29 -64 -64 -64h-256c-35 0 -64 29 -64 64v384c0 35 29 64 64 64h256zM192 416c-9 0 -16 -7 -16 -16s7 -16 16 -16s16 7 16 16s-7 16 -16 16zM192 -32c9 0 16 7 16 16s-7 16 -16 16s-16 -7 -16 -16s7 -16 16 -16zM288 208v96
c0 26 -22 48 -48 48h-96c-26 0 -48 -22 -48 -48v-224c0 -26 22 -48 48 -48h96c26 0 48 22 48 48v128z" />
    <glyph glyph-name="microwave-primary" unicode="&#xe01b;" horiz-adv-x="576" 
d="M528 416c26 0 48 -22 48 -48v-320c0 -26 -22 -48 -48 -48l-24 -32h-48l-24 32h-288l-24 -32h-48l-24 32c-26 0 -48 22 -48 48v320c0 26 22 48 48 48h480zM416 96v224h-320v-224h320zM496 184c13 0 24 11 24 24s-11 24 -24 24s-24 -11 -24 -24s11 -24 24 -24zM496 280
c13 0 24 11 24 24s-11 24 -24 24s-24 -11 -24 -24s11 -24 24 -24z" />
    <glyph glyph-name="outlet-primary" unicode="&#xe01c;" horiz-adv-x="448" 
d="M384 416c35 0 64 -29 64 -64v-320c0 -35 -29 -64 -64 -64h-320c-35 0 -64 29 -64 64v320c0 35 29 64 64 64h320zM333 69c31 32 51 75 51 123s-20 91 -51 123c-4 3 -9 5 -14 5h-190c-5 0 -10 -2 -14 -5c-31 -32 -51 -75 -51 -123s20 -91 51 -123c4 -3 9 -5 14 -5h190
c5 0 10 2 14 5z" />
    <glyph glyph-name="oven-primary" unicode="&#xe01d;" horiz-adv-x="448" 
d="M0 -32v288h448v-288c0 -18 -14 -32 -32 -32h-384c-18 0 -32 14 -32 32zM64 192v-192h320v192h-320zM336 160c9 0 16 -7 16 -16s-7 -16 -16 -16h-224c-9 0 -16 7 -16 16s7 16 16 16h224zM384 448c35 0 64 -29 64 -64v-96h-448v96c0 35 29 64 64 64h320zM80 344
c13 0 24 11 24 24s-11 24 -24 24s-24 -11 -24 -24s11 -24 24 -24zM176 344c13 0 24 11 24 24s-11 24 -24 24s-24 -11 -24 -24s11 -24 24 -24zM272 344c13 0 24 11 24 24s-11 24 -24 24s-24 -11 -24 -24s11 -24 24 -24zM368 344c13 0 24 11 24 24s-11 24 -24 24
s-24 -11 -24 -24s11 -24 24 -24z" />
    <glyph glyph-name="planet-moon-primary" unicode="&#xe01f;" horiz-adv-x="576" 
d="M512 448c36 0 64 -29 64 -64s-29 -64 -64 -64s-64 29 -64 64s29 64 64 64zM90 192c-13 0 -49 30 -71 58c34 78 111 132 201 134c23 -31 48 -78 25 -112l-49 -58c-11 -12 -11 -31 1 -43c7 -7 17 -11 27 -11h64c18 0 32 -14 32 -32v-17c0 -10 -2 -20 -7 -29l-40 -80
c-4 -8 -12 -14 -21 -16c-3 0 -7 -1 -10 -1c-5 -1 -9 1 -13 4c-3 3 -5 7 -5 12v63c-17 0 -32 14 -32 32v32l-54 55c-6 6 -15 9 -23 9h-25z" />
    <glyph glyph-name="planet-ringed-primary" unicode="&#xe020;" 
d="M413 329c-19 -39 -67 -101 -130 -164s-125 -111 -164 -130c-43 39 -71 94 -71 157c0 115 93 208 208 208c63 0 118 -28 157 -71zM448 272c10 -25 16 -52 16 -80c0 -115 -93 -208 -208 -208c-28 0 -55 6 -80 16c46 32 96 75 147 125s93 101 125 147z" />
    <glyph glyph-name="police-box-primary" unicode="&#xe021;" horiz-adv-x="448" 
d="M360 384c13 0 24 -11 24 -24v-376h-320v376c0 13 11 24 24 24h8v16c0 9 7 16 16 16h224c9 0 16 -7 16 -16v-16h8zM128 312v-24h32v32h-24c-4 0 -8 -4 -8 -8zM128 272v-24c0 -4 4 -8 8 -8h24v32h-32zM208 136v64c0 4 -4 8 -8 8h-64c-4 0 -8 -4 -8 -8v-64c0 -4 4 -8 8 -8
h64c4 0 8 4 8 8zM208 248v24h-32v-32h24c4 0 8 4 8 8zM208 288v24c0 4 -4 8 -8 8h-24v-32h32zM272 240v32h-32v-24c0 -4 4 -8 8 -8h24zM272 288v32h-24c-4 0 -8 -4 -8 -8v-24h32zM320 248v24h-32v-32h24c4 0 8 4 8 8zM320 288v24c0 4 -4 8 -8 8h-24v-32h32z" />
    <glyph glyph-name="person-to-portal-primary" unicode="&#xe022;" 
d="M272 352c-27 0 -48 22 -48 48v0c0 26 22 48 48 48s48 -22 48 -48s-22 -48 -48 -48zM384 224c18 0 32 -14 32 -32s-14 -32 -32 -32h-54c-18 0 -35 10 -43 27l-20 41l-32 -78l62 -36c18 -11 27 -34 21 -54l-31 -102h-1c-5 -16 -23 -26 -40 -20v0c-16 5 -26 23 -21 40l28 87
l-85 50c-28 17 -39 51 -26 81l37 87l-15 5c-7 1 -17 -1 -25 -7l-40 -30c-14 -11 -34 -8 -44 6c-11 14 -9 34 6 45l39 30c23 18 53 24 81 17l71 -21c26 -7 49 -25 62 -51l26 -53h44zM114 131c8 -18 21 -33 38 -43l10 -6l-8 -21c-8 -18 -25 -29 -45 -29h-77
c-18 0 -32 14 -32 32s14 32 32 32h67z" />
    <glyph glyph-name="person-from-portal-primary" unicode="&#xe023;" 
d="M210 131c8 -18 21 -33 38 -43l10 -6l-8 -21c-8 -18 -25 -29 -45 -29h-77c-18 0 -32 14 -32 32s14 32 32 32h67zM368 352c-27 0 -48 22 -48 48v0c0 26 22 48 48 48s48 -22 48 -48s-22 -48 -48 -48zM480 224c18 0 32 -14 32 -32s-14 -32 -32 -32h-54c-18 0 -35 10 -43 27
l-20 41l-32 -78l62 -36c18 -11 27 -34 21 -54l-31 -102h-1c-5 -16 -23 -26 -40 -20v0c-16 5 -26 23 -21 40l28 87l-85 50c-28 17 -39 51 -26 81l37 87l-15 5c-7 1 -17 -1 -25 -7l-40 -30c-14 -11 -34 -8 -44 6c-11 14 -9 34 6 45l39 30c23 18 53 24 81 17l71 -21
c26 -7 49 -25 62 -51l26 -53h44z" />
    <glyph glyph-name="radar-primary" unicode="&#xe024;" 
d="M227 2c-83 13 -148 78 -161 161c4 -2 9 -3 14 -3c7 0 13 3 18 7c11 -68 64 -121 132 -132c-4 -6 -6 -12 -6 -19c0 -5 1 -9 3 -14zM281 35c76 12 135 77 135 157h32c0 -96 -71 -176 -164 -190c2 5 4 9 4 14c0 7 -3 13 -7 19zM475 400c6 -6 6 -16 0 -23l-201 -201
c-7 -6 -17 -6 -23 0l-11 11c-7 7 -7 17 0 23l40 41c-7 3 -16 5 -24 5c-36 0 -64 -29 -64 -64s29 -64 64 -64s64 29 64 64h32c0 -53 -43 -96 -96 -96s-96 43 -96 96s43 96 96 96c17 0 34 -5 48 -14l46 46c-27 20 -59 32 -94 32c-80 0 -146 -58 -158 -135c-5 4 -11 7 -18 7
c-5 0 -10 -1 -14 -3c14 92 93 163 190 163c42 0 84 -14 117 -40l68 67c6 7 16 7 23 0z" />
    <glyph glyph-name="raygun-primary" unicode="&#xe025;" horiz-adv-x="576" 
d="M569 329c5 -3 7 -8 7 -13v-84c0 -5 -2 -10 -7 -13c-4 -3 -9 -4 -14 -2l-75 25h-64v64h64l75 25v0c5 1 10 1 14 -2zM112 384h128c17 0 33 -4 48 -11v-213l-115 -200c-7 -11 -17 -19 -30 -22c-12 -4 -25 -2 -36 4l-55 32c-11 7 -20 17 -23 30c-3 12 -1 25 5 36l70 121
c-58 4 -104 52 -104 111c0 62 50 112 112 112zM112 248c13 0 24 11 24 24s-11 24 -24 24s-24 -11 -24 -24s11 -24 24 -24zM208 248c13 0 24 11 24 24s-11 24 -24 24s-24 -11 -24 -24s11 -24 24 -24z" />
    <glyph glyph-name="refrigerator-primary" unicode="&#xe026;" horiz-adv-x="384" 
d="M320 80v176h64v-288c0 -18 -14 -32 -32 -32h-320c-18 0 -32 14 -32 32v288h288v-176c0 -9 7 -16 16 -16s16 7 16 16zM320 448c35 0 64 -29 64 -64v-96h-64v80c0 9 -7 16 -16 16s-16 -7 -16 -16v-80h-288v96c0 35 29 64 64 64h256z" />
    <glyph glyph-name="rocket-launch-primary" unicode="&#xe027;" 
d="M505 428c7 -32 7 -57 7 -82c0 -77 -31 -131 -78 -173c-30 -27 -17 -14 -210 -128c0 64 -51 115 -115 115v0c114 193 101 180 128 211c42 46 96 77 173 77c25 0 50 0 82 -7c6 -1 12 -7 13 -13zM384 280c22 0 40 18 40 40s-18 40 -40 40s-40 -18 -40 -40s18 -40 40 -40z
M76 53c13 14 31 15 43 2c13 -12 12 -30 -2 -43c-8 -9 -30 -13 -53 -12c-1 23 3 45 12 53z" />
    <glyph glyph-name="sensor-primary" unicode="&#xe028;" horiz-adv-x="448" 
d="M80 352c9 0 16 -7 16 -16v-160c0 -9 -7 -16 -16 -16s-16 7 -16 16v160c0 9 7 16 16 16zM144 352c9 0 16 -7 16 -16v-160c0 -9 -7 -16 -16 -16s-16 7 -16 16v160c0 9 7 16 16 16zM208 352c9 0 16 -7 16 -16v-160c0 -9 -7 -16 -16 -16s-16 7 -16 16v160c0 9 7 16 16 16z
" />
    <glyph glyph-name="sensor-triangle-exclamation-primary" unicode="&#xe029;" horiz-adv-x="640" 
d="M80 352c9 0 16 -7 16 -16v-160c0 -9 -7 -16 -16 -16s-16 7 -16 16v160c0 9 7 16 16 16zM144 352c9 0 16 -7 16 -16v-160c0 -9 -7 -16 -16 -16s-16 7 -16 16v160c0 9 7 16 16 16zM208 352c9 0 16 -7 16 -16v-160c0 -9 -7 -16 -16 -16s-16 7 -16 16v160c0 9 7 16 16 16z
M633 45c20 -34 -5 -77 -44 -77h-282c-39 0 -64 43 -44 77l141 244c19 34 69 34 88 0zM448 16c13 0 24 11 24 24s-11 24 -24 24s-24 -11 -24 -24s11 -24 24 -24zM467 99l10 96c0 3 -1 7 -3 9c-3 3 -6 4 -9 4h-34c-3 0 -6 -1 -9 -4c-2 -2 -3 -6 -3 -9l10 -96
c1 -6 6 -11 12 -11h14c6 0 11 5 12 11z" />
    <glyph glyph-name="sensor-fire-primary" unicode="&#xe02a;" horiz-adv-x="640" 
d="M80 352c9 0 16 -7 16 -16v-160c0 -9 -7 -16 -16 -16s-16 7 -16 16v160c0 9 7 16 16 16zM551 297c52 -48 89 -126 89 -164c0 -91 -71 -165 -160 -165s-160 74 -160 165c0 51 50 136 120 201c26 -24 50 -51 71 -80c12 16 26 30 40 43zM540 50c37 26 46 76 25 115
c-3 5 -5 10 -8 15l-44 -50s-69 88 -75 94c-36 -44 -54 -69 -54 -98c0 -58 44 -94 98 -94c21 0 41 6 58 18zM144 352c9 0 16 -7 16 -16v-160c0 -9 -7 -16 -16 -16s-16 7 -16 16v160c0 9 7 16 16 16zM209 352c8 0 16 -7 16 -16v-160c0 -9 -7 -16 -16 -16s-17 7 -17 16v160
c0 9 8 16 17 16z" />
    <glyph glyph-name="sensor-on-primary" unicode="&#xe02b;" horiz-adv-x="640" 
d="M208 352c9 0 16 -7 16 -16v-160c0 -9 -7 -16 -16 -16s-16 7 -16 16v160c0 9 7 16 16 16zM144 352c9 0 16 -7 16 -16v-160c0 -9 -7 -16 -16 -16s-16 7 -16 16v160c0 9 7 16 16 16zM80 352c9 0 16 -7 16 -16v-160c0 -9 -7 -16 -16 -16s-16 7 -16 16v160c0 9 7 16 16 16z
M616 216c13 0 24 -11 24 -24s-11 -24 -24 -24h-64c-13 0 -24 11 -24 24s11 24 24 24h64zM597 44c11 -7 14 -22 7 -33s-22 -14 -33 -7l-48 32c-11 7 -14 22 -7 33s22 14 33 7zM536 304c-10 0 -20 7 -23 17s1 21 10 27l48 32c7 5 16 6 24 2s14 -11 14 -20s-4 -17 -12 -22
l-48 -32c-4 -3 -8 -4 -13 -4z" />
    <glyph glyph-name="sensor-cloud-primary" unicode="&#xe02c;" horiz-adv-x="640" 
d="M573 127c41 -7 70 -44 67 -85c-3 -42 -38 -74 -80 -74h-224c-44 0 -80 36 -80 80s36 80 80 80h2c-9 40 15 82 55 93s82 -9 97 -48c15 19 41 25 62 13c20 -12 29 -37 21 -59zM80 352c9 0 16 -7 16 -16v-160c0 -9 -7 -16 -16 -16s-16 7 -16 16v160c0 9 7 16 16 16zM144 352
c9 0 16 -7 16 -16v-160c0 -9 -7 -16 -16 -16s-16 7 -16 16v160c0 9 7 16 16 16zM208 352c9 0 16 -7 16 -16v-160c0 -9 -7 -16 -16 -16s-16 7 -16 16v160c0 9 7 16 16 16z" />
    <glyph glyph-name="siren-primary" unicode="&#xe02d;" horiz-adv-x="448" 
d="M424 96c13 0 24 -11 24 -24v-80c0 -13 -11 -24 -24 -24h-400c-13 0 -24 11 -24 24v80c0 13 11 24 24 24h400z" />
    <glyph glyph-name="siren-on-primary" unicode="&#xe02e;" horiz-adv-x="640" 
d="M536 336c-10 0 -20 7 -23 17s1 21 10 27l48 32c7 5 16 5 24 2c8 -4 13 -12 13 -21c1 -8 -3 -17 -11 -21l-48 -32c-4 -3 -8 -4 -13 -4zM91 340l-48 32c-8 4 -12 13 -12 21c1 9 6 17 14 21c8 3 17 3 24 -2l48 -32c8 -5 12 -13 12 -22c-1 -9 -6 -17 -14 -20
c-8 -4 -17 -3 -24 2zM112 224c0 -13 -11 -24 -24 -24h-64c-13 0 -24 11 -24 24s11 24 24 24h64c13 0 24 -11 24 -24zM616 248c13 0 24 -11 24 -24s-11 -24 -24 -24h-64c-13 0 -24 11 -24 24s11 24 24 24h64zM520 96c13 0 24 -11 24 -24v-80c0 -13 -11 -24 -24 -24h-400
c-13 0 -24 11 -24 24v80c0 13 11 24 24 24h400z" />
    <glyph glyph-name="solar-system-primary" unicode="&#xe02f;" 
d="M52 410c22 22 58 22 80 0c21 -22 21 -57 0 -79c-22 -22 -58 -22 -80 0c-21 22 -21 57 0 79v0zM256 271c35 0 64 -29 64 -64c0 -36 -29 -64 -64 -64s-64 28 -64 64c0 35 29 64 64 64zM392 274c-19 -18 -49 -18 -68 0c-19 19 -19 50 0 68c19 19 49 19 68 0
c19 -18 19 -49 0 -68zM460 82c22 -22 22 -57 0 -79v0c-22 -22 -57 -22 -79 0s-21 57 0 79s57 22 79 0z" />
    <glyph glyph-name="circle-sort-primary" unicode="&#xe030;" 
d="M165 224c-17 0 -25 20 -14 31l92 92c4 3 8 5 13 5s10 -2 13 -5l92 -92c11 -11 3 -31 -13 -31h-183zM347 160c17 0 25 -20 14 -31l-92 -92c-3 -3 -8 -5 -13 -5s-9 2 -13 5l-92 92c-11 11 -3 31 14 31h182z" />
    <glyph glyph-name="circle-sort-down-primary" unicode="&#xe031;" 
d="M165 160h183c16 0 24 -20 13 -31l-92 -92c-3 -3 -8 -5 -13 -5s-9 2 -13 5l-92 92c-11 11 -3 31 14 31z" />
    <glyph glyph-name="circle-sort-up-primary" unicode="&#xe032;" 
d="M347 224h-182c-17 0 -25 20 -14 31l92 92c3 3 8 5 13 5s10 -2 13 -5l92 -92c11 -11 3 -31 -14 -31z" />
    <glyph glyph-name="space-station-moon-primary" unicode="&#xe033;" 
d="M192 208c-44 0 -80 36 -80 80s36 80 80 80s80 -36 80 -80s-36 -80 -80 -80zM192 312c-13 0 -24 -11 -24 -24s11 -24 24 -24s24 11 24 24s-11 24 -24 24zM256 128c87 0 168 12 238 33c-2 -12 -4 -24 -8 -35c-68 -19 -146 -30 -230 -30s-162 11 -231 30c-3 11 -5 23 -7 35
c70 -21 151 -33 238 -33z" />
    <glyph glyph-name="space-station-moon-construction-primary" unicode="&#xe034;" 
d="M192 208c-44 0 -80 36 -80 80s36 80 80 80s80 -36 80 -80s-36 -80 -80 -80zM192 312c-13 0 -24 -11 -24 -24s11 -24 24 -24s24 11 24 24s-11 24 -24 24zM256 128c87 0 168 12 238 33c-2 -12 -4 -24 -8 -35c-68 -19 -146 -30 -230 -30s-162 11 -231 30c-3 11 -5 23 -7 35
c70 -21 151 -33 238 -33z" />
    <glyph glyph-name="sprinkler-primary" unicode="&#xe035;" 
d="M398 192c7 0 13 -4 16 -10s2 -13 -2 -19l-67 -78l-25 -24v-125h-128v125l-25 24l-67 78c-4 6 -5 13 -2 19s9 10 16 10h110v176c0 9 7 16 16 16h32c9 0 16 -7 16 -16v-176h110z" />
    <glyph glyph-name="star-shooting-primary" unicode="&#xe036;" 
d="M364 181c19 -3 27 -26 13 -39l-76 -75l18 -104c2 -9 -2 -17 -9 -23c-7 -5 -17 -5 -24 -1l-94 49l-94 -49c-16 -9 -36 5 -33 24l18 104l-76 75c-14 13 -6 36 13 39l105 15l46 95c9 17 33 17 42 0l47 -95z" />
    <glyph glyph-name="starfighter-primary" unicode="&#xe037;" horiz-adv-x="640" 
d="M512 96h80v-77l-128 -51v-16c0 -9 -7 -16 -16 -16h-16c-9 0 -16 7 -16 16v16h-192v-16c0 -9 -7 -16 -16 -16h-16c-9 0 -16 7 -16 16v16l-128 51v77h80v-80c0 -9 7 -16 16 -16h64c9 0 16 7 16 16v80h32v96l30 242c1 8 8 14 16 14h36c8 0 15 -6 16 -14l30 -242v-96h32v-80
c0 -9 7 -16 16 -16h64c9 0 16 7 16 16v80zM352 144v48c0 18 -14 32 -32 32s-32 -14 -32 -32v-48c0 -9 7 -16 16 -16h32c9 0 16 7 16 16z" />
    <glyph glyph-name="starfighter-twin-ion-engine-primary" unicode="&#xe038;" horiz-adv-x="576" 
d="M288 352c88 0 160 -72 160 -160s-72 -160 -160 -160s-160 72 -160 160s72 160 160 160zM300 287v-32c9 -2 17 -5 24 -10l23 23c-14 10 -30 17 -47 19zM276 287c-17 -2 -33 -9 -47 -19l23 -23c7 5 15 8 24 10v32zM212 251c-10 -14 -17 -30 -19 -47h32c2 9 5 17 10 24z
M193 180c2 -17 9 -33 19 -47l23 23c-5 7 -8 15 -10 24h-32zM276 97v32c-9 2 -17 5 -24 10l-23 -23c14 -10 30 -17 47 -19zM256 192c0 -18 14 -32 32 -32s32 14 32 32s-14 32 -32 32s-32 -14 -32 -32zM300 97c17 2 33 9 47 19l-23 23c-7 -5 -15 -8 -24 -10v-32zM364 133
c10 14 17 30 19 47h-32c-2 -9 -5 -17 -10 -24zM351 204h32c-2 17 -9 33 -19 47l-23 -23c5 -7 8 -15 10 -24zM48 416c9 0 16 -7 16 -16v-416c0 -9 -7 -16 -16 -16h-32c-9 0 -16 7 -16 16v416v0c0 9 7 16 16 16h32zM560 416c9 0 16 -7 16 -16v-416c0 -9 -7 -16 -16 -16h-32
c-9 0 -16 7 -16 16v416v0c0 9 7 16 16 16h32z" />
    <glyph glyph-name="starship-primary" unicode="&#xe039;" horiz-adv-x="640" 
d="M448 256c35 0 64 -29 64 -64s-28 -64 -64 -64s-64 29 -64 64s28 64 64 64zM448 160c17 0 32 14 32 32s-14 32 -32 32s-32 -14 -32 -32s14 -32 32 -32zM204 237l25 2c-4 -16 -5 -31 -5 -47s1 -31 5 -47l-25 2l-63 -51h-76l71 57l-6 1c-19 2 -34 18 -34 38s15 36 34 38l6 1
l-71 57h76z" />
    <glyph glyph-name="starship-freighter-primary" unicode="&#xe03a;" horiz-adv-x="576" 
d="M128 96c0 -9 -7 -16 -16 -16s-16 7 -16 16s7 16 16 16s16 -7 16 -16zM112 304c9 0 16 -7 16 -16v0c0 -9 -7 -16 -16 -16s-16 7 -16 16s7 16 16 16zM80 208v0c9 0 16 -7 16 -16v0c0 -9 -7 -16 -16 -16s-16 7 -16 16s7 16 16 16zM480 16c0 -26 -22 -48 -48 -48h-64
c-14 0 -28 6 -37 18l-104 126h-3c-45 -1 -82 35 -82 80c-1 45 35 82 80 82c45 1 81 -35 82 -80c0 -7 -1 -14 -2 -21l89 -109h41c27 0 48 -22 48 -48zM256 192c0 18 -14 32 -32 32s-32 -14 -32 -32s14 -32 32 -32s32 14 32 32z" />
    <glyph glyph-name="sword-laser-primary" unicode="&#xe03b;" 
d="M9 36l80 79l90 -90l-79 -80c-13 -12 -33 -12 -45 0l-46 46c-12 12 -12 32 0 45zM106 121l22 22l79 -79l-22 -23zM196 211l79 -79c3 -3 3 -8 0 -11l-11 -12c-3 -3 -8 -3 -11 0l-80 80c-3 3 -3 8 0 11l12 11c3 3 8 3 11 0zM139 155l23 22l79 -79l-22 -23z" />
    <glyph glyph-name="sword-laser-alt-primary" unicode="&#xe03c;" 
d="M94 121l23 -23l-108 -107c-12 12 -12 32 0 45zM128 87l23 -23l-108 -107l-22 22zM309 192c14 0 22 -17 11 -27l-124 -123l-90 90l55 55c3 3 7 5 11 5h137zM55 -55l107 108l23 -23l-85 -85c-13 -12 -33 -12 -45 0z" />
    <glyph glyph-name="swords-laser-primary" unicode="&#xe03d;" horiz-adv-x="640" 
d="M223 215l24 22l51 -56l-74 -82v113c0 1 -1 2 -1 3zM135 441c9 9 24 9 33 1l216 -197v-111l-250 274c-8 9 -8 24 1 33zM505 441c9 -9 9 -24 1 -33l-105 -115h-1c-6 0 -13 -1 -18 -4l-38 35l128 118c9 8 24 8 33 -1z" />
    <glyph glyph-name="telescope-primary" unicode="&#xe03e;" horiz-adv-x="640" 
d="M377 99l47 -142c1 -2 1 -3 1 -5c0 -9 -7 -16 -16 -16h-17c-7 0 -13 4 -15 11l-42 126c-10 -1 -19 -1 -29 0l-42 -126c-2 -7 -8 -11 -15 -11h-17c-2 0 -3 0 -5 1c-8 3 -13 12 -10 20l47 142c-10 13 -16 29 -16 45c0 40 33 72 72 72c40 0 72 -32 72 -72
c0 -16 -5 -32 -15 -45zM320 120c14 0 24 11 24 24s-10 24 -24 24c-13 0 -24 -11 -24 -24s11 -24 24 -24zM639 231c4 -8 0 -17 -8 -21l-118 -48c-8 -4 -17 0 -21 8l-85 207v0c-4 8 0 18 8 21l118 49c8 3 17 -1 20 -9l86 -207v0z" />
    <glyph glyph-name="temperature-arrow-down-primary" unicode="&#xe03f;" 
d="M160 125c22 -8 35 -30 31 -53s-24 -40 -47 -40s-43 17 -47 40s9 45 31 53v19c0 9 7 16 16 16s16 -7 16 -16v-19zM500 105c14 -11 16 -31 5 -45l-64 -80c-6 -8 -15 -12 -25 -12s-19 4 -25 12l-64 80c-11 14 -9 34 5 45s34 9 45 -5l7 -9v293c0 18 14 32 32 32
s32 -14 32 -32v-293l7 9c11 14 31 16 45 5z" />
    <glyph glyph-name="temperature-arrow-up-primary" unicode="&#xe040;" 
d="M160 125c22 -8 35 -30 31 -53s-24 -40 -47 -40s-43 17 -47 40s9 45 31 53v211c0 9 7 16 16 16s16 -7 16 -16v-211zM505 324c11 -14 9 -34 -5 -45c-6 -5 -13 -7 -20 -7c-9 0 -19 4 -25 12l-7 9v-293c0 -18 -14 -32 -32 -32s-32 14 -32 32v293l-7 -9
c-11 -14 -31 -16 -45 -5s-16 31 -5 45l64 80c12 15 38 15 50 0z" />
    <glyph glyph-name="trailer-primary" unicode="&#xe041;" horiz-adv-x="640" 
d="M624 128c9 0 16 -7 16 -16v-32c0 -9 -7 -16 -16 -16h-338c-8 54 -54 96 -110 96s-102 -42 -110 -96h-34c-18 0 -32 14 -32 32v288c0 18 14 32 32 32h480c18 0 32 -14 32 -32v-256h80zM96 204v140c0 4 -4 8 -8 8h-16c-4 0 -8 -4 -8 -8v-160c10 8 21 15 32 20zM192 223v121
c0 4 -4 8 -8 8h-16c-4 0 -8 -4 -8 -8v-121c5 0 11 1 16 1s11 -1 16 -1zM288 184v160c0 4 -4 8 -8 8h-16c-4 0 -8 -4 -8 -8v-140c11 -5 22 -12 32 -20zM384 128v216c0 4 -4 8 -8 8h-16c-4 0 -8 -4 -8 -8v-216h32zM480 128v216c0 4 -4 8 -8 8h-16c-4 0 -8 -4 -8 -8v-216h32z
" />
    <glyph glyph-name="transporter-primary" unicode="&#xe042;" 
d="M510 404c1 -1 2 -2 2 -4s-1 -3 -2 -4l-30 -12l-12 -30c-1 -1 -2 -2 -4 -2s-3 1 -4 2l-12 30l-30 12c-1 1 -2 2 -2 4s1 3 2 4l30 12l12 30c1 1 2 2 4 2s3 -1 4 -2l12 -30zM64 352l30 -12c1 -1 2 -2 2 -4s-1 -3 -2 -4l-30 -12l-12 -30c-1 -1 -2 -2 -4 -2s-3 1 -4 2l-12 30
l-30 12c-1 1 -2 2 -2 4s1 3 2 4l30 12l12 30c1 1 2 2 4 2s3 -1 4 -2z" />
    <glyph glyph-name="transporter-1-primary" unicode="&#xe043;" 
d="M256 352c-26 0 -48 22 -48 48s21 48 48 48s48 -22 48 -48s-21 -48 -48 -48zM153 171c-12 -13 -32 -15 -45 -4c-14 12 -16 32 -5 46l71 84c12 15 30 23 49 23h66c19 0 37 -8 49 -23l71 -85c11 -13 9 -33 -5 -45c-13 -11 -33 -9 -45 4l-31 38v-49h-144v49zM384 0
c18 0 32 -14 32 -32v-32h-320v32c0 18 14 32 32 32h256z" />
    <glyph glyph-name="transporter-2-primary" unicode="&#xe044;" 
d="M384 0c18 0 32 -14 32 -32v-32h-320v32c0 18 14 32 32 32h256zM338 297l61 -73h-286l61 73c12 15 30 23 49 23h66c19 0 37 -8 49 -23zM256 352c-26 0 -48 22 -48 48s22 48 48 48s48 -22 48 -48s-22 -48 -48 -48z" />
    <glyph glyph-name="transporter-3-primary" unicode="&#xe045;" 
d="M384 0c18 0 32 -14 32 -32v-32h-320v32c0 18 14 32 32 32h256zM256 352c-26 0 -48 22 -48 48s22 48 48 48s48 -22 48 -48s-22 -48 -48 -48z" />
    <glyph glyph-name="transporter-empty-primary" unicode="&#xe046;" horiz-adv-x="320" 
 />
    <glyph glyph-name="ufo-primary" unicode="&#xe047;" horiz-adv-x="640" 
d="M494 235c88 -22 146 -62 146 -107c0 -71 -143 -128 -320 -128s-320 57 -320 128c0 45 58 85 146 107c-1 -9 -2 -18 -2 -27v-9c54 -25 113 -39 176 -39s122 14 176 39v9c0 9 -1 18 -2 27zM128 88c13 0 24 11 24 24s-11 24 -24 24s-24 -11 -24 -24s11 -24 24 -24zM320 56
c13 0 24 11 24 24s-11 24 -24 24s-24 -11 -24 -24s11 -24 24 -24zM512 88c13 0 24 11 24 24s-11 24 -24 24s-24 -11 -24 -24s11 -24 24 -24z" />
    <glyph glyph-name="ufo-beam-primary" unicode="&#xe048;" horiz-adv-x="576" 
d="M433 337c85 -20 143 -56 143 -97c0 -62 -129 -112 -288 -112s-288 50 -288 112c0 41 58 77 143 97c-3 -13 -6 -26 -6 -40c0 -3 0 -5 1 -8c45 -21 96 -33 150 -33s105 12 150 33c1 3 1 5 1 8c0 14 -3 27 -6 40zM120 240c0 13 -11 24 -24 24s-24 -11 -24 -24s11 -24 24 -24
s24 11 24 24zM312 192c0 13 -11 24 -24 24s-24 -11 -24 -24s11 -24 24 -24s24 11 24 24zM504 240c0 13 -11 24 -24 24s-24 -11 -24 -24s11 -24 24 -24s24 11 24 24z" />
    <glyph glyph-name="user-alien-primary" unicode="&#xe04a;" horiz-adv-x="448" 
d="M148 272c33 0 60 -27 60 -60v-8c0 -7 -5 -12 -12 -12h-24c-33 0 -60 27 -60 60v8c0 7 5 12 12 12h24zM324 272c7 0 12 -5 12 -12v-8c0 -33 -27 -60 -60 -60h-24c-7 0 -12 5 -12 12v8c0 33 27 60 60 60h24z" />
    <glyph glyph-name="user-robot-primary" unicode="&#xe04b;" horiz-adv-x="448" 
d="M352 96c53 0 96 -43 96 -96v-32c0 -18 -14 -32 -32 -32h-96v64c0 18 -14 32 -32 32h-128c-18 0 -32 -14 -32 -32v-64h-96c-18 0 -32 14 -32 32v32c0 53 43 96 96 96h256zM116 128c-20 0 -36 16 -36 36v175c0 25 20 45 45 45h198c25 0 45 -20 45 -45v-175
c0 -20 -16 -36 -36 -36h-216zM304 176v32h-32v-32h32zM288 320c-18 0 -32 -14 -32 -32s14 -32 32 -32s32 14 32 32s-14 32 -32 32zM208 208v-32h32v32h-32zM176 176v32h-32v-32h32zM160 320c-18 0 -32 -14 -32 -32s14 -32 32 -32s32 14 32 32s-14 32 -32 32z" />
    <glyph glyph-name="user-visor-primary" unicode="&#xe04c;" horiz-adv-x="448" 
d="M112 272c-18 0 -32 14 -32 32v64c0 18 14 32 32 32h224c18 0 32 -14 32 -32v-64c0 -18 -14 -32 -32 -32h-224zM128 352v-32h192v32h-192zM275 144c95 0 173 -78 173 -173c0 -19 -16 -35 -35 -35h-378c-19 0 -35 16 -35 35c0 95 78 173 173 173h102zM353 -16c2 1 3 2 3 4
c-1 35 -11 66 -30 90c-1 1 -2 2 -3 2s-3 -1 -3 -2c-20 -23 -32 -52 -36 -89c0 -2 1 -3 2 -4s3 0 4 1c25 19 34 23 37 24c1 0 1 1 2 1c2 -2 7 -8 20 -25c1 -1 2 -2 3 -2h1z" />
    <glyph glyph-name="vacuum-primary" unicode="&#xe04d;" horiz-adv-x="640" 
d="M368 96c44 0 80 -36 80 -80s-36 -80 -80 -80s-80 36 -80 80s36 80 80 80zM368 0c9 0 16 7 16 16s-7 16 -16 16s-16 -7 -16 -16s7 -16 16 -16zM640 320c0 -53 -33 -98 -79 -117v-1c-8 20 -20 39 -36 56c30 6 51 32 51 62c0 35 -29 64 -64 64h-210c-31 0 -57 -21 -63 -51
l-71 -333h8c9 0 16 -7 16 -16v-32c0 -9 -7 -16 -16 -16h-160c-9 0 -16 7 -16 16c0 26 22 48 48 48h54l74 347c13 58 66 101 126 101h210c71 0 128 -57 128 -128z" />
    <glyph glyph-name="vacuum-robot-primary" unicode="&#xe04e;" 
d="M426 426c93 -94 93 -246 0 -340c-94 -93 -246 -93 -340 0c-93 94 -93 246 0 340c94 93 246 93 340 0zM203 117c7 6 7 16 0 22l-64 64c-6 6 -16 6 -22 0c-7 -6 -7 -16 0 -22l64 -64c3 -3 7 -5 11 -5s8 2 11 5zM283 133c7 6 7 16 0 22l-128 128c-6 6 -16 6 -22 0
c-7 -6 -7 -16 0 -22l128 -128c3 -3 7 -5 11 -5s8 2 11 5zM299 213c7 6 7 16 0 22l-64 64c-6 6 -16 6 -22 0c-7 -6 -7 -16 0 -22l64 -64c3 -3 7 -5 11 -5s8 2 11 5zM379 133c34 33 52 77 53 123c1 47 -18 91 -51 125c-34 33 -79 52 -125 51s-90 -19 -123 -53
c-7 -6 -7 -16 0 -22c6 -7 16 -7 22 0c28 27 64 42 101 43c39 0 74 -15 102 -42c28 -28 42 -64 42 -102c0 -37 -16 -73 -43 -101c-7 -6 -7 -16 0 -22c3 -3 7 -5 11 -5s8 2 11 5z" />
    <glyph glyph-name="window-frame-primary" unicode="&#xe04f;" 
d="M496 0c9 0 16 -7 16 -16v-32c0 -9 -7 -16 -16 -16h-480c-9 0 -16 7 -16 16v32c0 9 7 16 16 16h16v416c0 18 14 32 32 32h384c18 0 32 -14 32 -32v-416h16zM240 0v160h-144v-160h144zM240 224v160h-144v-160h144zM416 0v160h-144v-160h144zM416 224v160h-144v-160h144z
" />
    <glyph glyph-name="window-frame-open-primary" unicode="&#xe050;" 
d="M480 416v-256h-448v256c0 18 14 32 32 32h384c18 0 32 -14 32 -32zM240 224v160h-144v-160h144zM416 224v160h-144v-160h144zM496 0c9 0 16 -7 16 -16v-32c0 -9 -7 -16 -16 -16h-480c-9 0 -16 7 -16 16v32c0 9 7 16 16 16h16v128h64v-128h320v128h64v-128h16z" />
    <glyph glyph-name="coffin-cross-primary" unicode="&#xe051;" horiz-adv-x="384" 
d="M375 333c8 -8 11 -20 8 -31l-87 -342c-4 -14 -17 -24 -32 -24h-144c-15 0 -28 10 -32 24l-87 342c-3 11 0 23 8 31l108 106c6 6 15 9 23 9h104c8 0 17 -3 23 -9zM288 240v32c0 9 -7 16 -16 16h-48v48c0 9 -7 16 -16 16h-32c-9 0 -16 -7 -16 -16v-48h-48
c-9 0 -16 -7 -16 -16v-32c0 -9 7 -16 16 -16h48v-112c0 -9 7 -16 16 -16h32c9 0 16 7 16 16v112h48c9 0 16 7 16 16z" />
    <glyph glyph-name="folder-arrow-down-primary" unicode="&#xe053;" 
d="M464 352c26 0 48 -22 48 -48v-288c0 -26 -22 -48 -48 -48h-416c-26 0 -48 22 -48 48v352c0 26 22 48 48 48h160l64 -64h192zM159 177c-9 -9 -9 -25 0 -34l80 -80c9 -9 25 -9 34 0l80 80c9 9 9 25 0 34s-25 9 -34 0l-39 -39v110c0 13 -11 24 -24 24s-24 -11 -24 -24v-110
l-39 39c-5 5 -11 7 -17 7s-12 -2 -17 -7z" />
    <glyph glyph-name="folder-arrow-up-primary" unicode="&#xe054;" 
d="M464 352c26 0 48 -22 48 -48v-288c0 -26 -22 -48 -48 -48h-416c-26 0 -48 22 -48 48v352c0 26 22 48 48 48h160l64 -64h192zM353 143c9 9 9 25 0 34l-80 80c-9 9 -25 9 -34 0l-80 -80c-9 -9 -9 -25 0 -34s25 -9 34 0l39 39v-110c0 -13 11 -24 24 -24s24 11 24 24v110
l39 -39c5 -5 11 -7 17 -7s12 2 17 7z" />
    <glyph glyph-name="user-unlock-primary" unicode="&#xe058;" horiz-adv-x="640" 
d="M592 160c26 0 48 -22 48 -48v-128c0 -26 -22 -48 -48 -48h-192c-26 0 -48 22 -48 48v128c0 26 22 48 48 48h16v80c0 47 40 84 88 80c42 -5 72 -43 72 -85v-11h-48v16c0 18 -14 32 -32 32s-32 -14 -32 -32v-80h128zM496 16c18 0 32 14 32 32s-14 32 -32 32
s-32 -14 -32 -32s14 -32 32 -32z" />
    <glyph glyph-name="bacteria-primary" unicode="&#xe059;" horiz-adv-x="640" 
d="M616 217c0 -6 0 -12 -1 -19c-2 -10 -5 -20 -8 -30l11 -4c9 -3 14 -13 11 -22c-4 -9 -14 -14 -23 -11l-10 4c-7 -16 -14 -30 -23 -44l9 -7c7 -6 9 -17 3 -25c-5 -8 -17 -9 -25 -3l-8 6c-11 -13 -23 -25 -35 -35l6 -9c6 -8 4 -19 -3 -25c-8 -6 -19 -4 -25 4l-7 8
c-14 -9 -28 -17 -44 -23l4 -10c3 -9 -2 -20 -11 -23s-19 2 -23 11l-3 9c-11 -3 -22 -6 -33 -8c-6 -1 -11 -1 -17 -1l-3 -11c-2 -9 -12 -15 -21 -12c-10 2 -16 12 -13 21l3 11c-16 8 -28 20 -37 36l-11 -4c-10 -3 -19 3 -22 12c-3 10 2 19 12 22l12 4c-1 17 3 34 11 48l-9 9
c-8 6 -8 17 -2 25c4 4 9 6 13 6c5 0 9 -2 12 -5l10 -9c10 7 22 12 34 14c4 1 8 2 13 3l-5 9c-3 9 1 19 10 23c2 1 4 2 7 2c7 0 13 -4 16 -11l4 -9l3 3c4 2 7 5 10 7c5 4 8 8 12 12c3 3 6 6 8 9c1 1 1 2 2 3l-9 4c-9 5 -13 15 -8 24c3 6 9 10 16 10c2 0 5 0 7 -2l9 -4
c2 5 3 10 4 16c2 11 6 22 12 31l-9 9c-7 7 -7 18 0 25c4 4 8 5 13 5c4 0 9 -2 13 -5l8 -9c14 9 29 14 46 14h3l3 11c2 8 9 13 17 13c2 0 3 0 5 -1c9 -2 15 -12 12 -21l-3 -11c16 -8 29 -21 37 -36l11 4h5c8 0 15 -5 17 -12c3 -10 -2 -20 -12 -22zM416 32c18 0 32 14 32 32
s-14 32 -32 32s-32 -14 -32 -32s14 -32 32 -32zM128 256c18 0 32 -14 32 -32s-14 -32 -32 -32s-32 14 -32 32s14 32 32 32z" />
    <glyph glyph-name="bacterium-primary" unicode="&#xe05a;" horiz-adv-x="576" 
d="M240 128c0 -26 -22 -48 -48 -48s-48 22 -48 48s22 48 48 48s48 -22 48 -48z" />
    <glyph glyph-name="box-tissue-primary" unicode="&#xe05b;" 
d="M0 64h512v-96c0 -18 -14 -32 -32 -32h-448c-18 0 -32 14 -32 32v96zM384 128h-256l-64 320h141c31 0 57 -19 67 -48s36 -48 67 -48h109z" />
    <glyph glyph-name="hand-holding-medical-primary" unicode="&#xe05c;" horiz-adv-x="576" 
d="M400 352v-64c0 -9 -7 -16 -16 -16h-64v-64c0 -9 -7 -16 -16 -16h-64c-9 0 -16 7 -16 16v64h-64c-9 0 -16 7 -16 16v64c0 9 7 16 16 16h64v64c0 9 7 16 16 16h64c9 0 16 -7 16 -16v-64h64c9 0 16 -7 16 -16z" />
    <glyph glyph-name="hand-sparkles-primary" unicode="&#xe05d;" horiz-adv-x="640" 
d="M640 16v0c0 -2 -2 -5 -4 -6l-49 -21v0v0l-21 -49c-1 -2 -4 -4 -6 -4s-5 2 -6 4l-21 49v0l-49 21c-2 1 -4 4 -4 6v0v0c0 2 2 5 4 6l49 21v0l21 49c1 2 4 4 6 4s5 -2 6 -4l21 -49v0l49 -21c2 -1 4 -4 4 -6zM107 331l25 -11l3 -31l-28 -12v0v0l-21 -49c-1 -2 -4 -4 -6 -4
s-5 2 -6 4l-21 49v0l-49 21c-2 1 -4 4 -4 6v0v0c0 2 2 5 4 6l49 21v0l21 49c1 2 4 4 6 4s5 -2 6 -4l21 -49v0z" />
    <glyph glyph-name="hands-bubbles-primary" unicode="&#xe05e;" horiz-adv-x="576" 
d="M519 112c12 0 22 -8 25 -19c2 -16 -9 -29 -24 -29h-160c-4 0 -8 -4 -8 -8s4 -8 8 -8h127c12 0 22 -8 25 -19c2 -16 -9 -29 -24 -29h-128c-4 0 -8 -4 -8 -8s4 -8 8 -8h95c12 0 22 -8 25 -19c2 -16 -9 -29 -24 -29h-208c-23 0 -44 7 -62 18c4 9 6 19 6 30
c0 39 -28 71 -64 78v26c0 53 34 101 85 118l108 33c13 4 26 -3 30 -16s-3 -26 -16 -30l-47 -17h199c12 0 22 -8 25 -19c2 -16 -9 -29 -24 -29h-128c-4 0 -8 -4 -8 -8s4 -8 8 -8h159z" />
    <glyph glyph-name="handshake-simple-slash-primary" unicode="&#xe05f;" horiz-adv-x="640" 
d="M39 443l592 -464c10 -8 12 -23 4 -34c-8 -10 -23 -12 -34 -4l-592 464c-10 8 -12 23 -4 34c5 6 12 9 19 9c5 0 10 -2 15 -5z" />
    <glyph glyph-name="handshake-slash-primary" unicode="&#xe060;" horiz-adv-x="640" 
d="M39 443l592 -464c10 -8 12 -23 4 -34c-8 -10 -23 -12 -34 -4l-592 464c-10 8 -12 23 -4 34c5 6 12 9 19 9c5 0 10 -2 15 -5z" />
    <glyph glyph-name="head-side-cough-primary" unicode="&#xe061;" horiz-adv-x="640" 
d="M608 136c-13 0 -24 11 -24 24s11 24 24 24s24 -11 24 -24s-11 -24 -24 -24zM480 88c13 0 24 -11 24 -24s-11 -24 -24 -24s-24 11 -24 24s11 24 24 24zM336 288c18 0 32 -14 32 -32s-14 -32 -32 -32s-32 14 -32 32s14 32 32 32zM544 136c13 0 24 -11 24 -24
s-11 -24 -24 -24s-24 11 -24 24s11 24 24 24zM544 40c13 0 24 -11 24 -24s-11 -24 -24 -24s-24 11 -24 24s11 24 24 24zM608 88c13 0 24 -11 24 -24s-11 -24 -24 -24s-24 11 -24 24s11 24 24 24zM608 -8c13 0 24 -11 24 -24s-11 -24 -24 -24s-24 11 -24 24s11 24 24 24z" />
    <glyph glyph-name="head-side-cough-slash-primary" unicode="&#xe062;" horiz-adv-x="640" 
d="M39 443l592 -464c10 -8 12 -23 4 -34c-8 -10 -23 -12 -34 -4l-592 464c-10 8 -12 23 -4 34c5 6 12 9 19 9c5 0 10 -2 15 -5z" />
    <glyph glyph-name="head-side-mask-primary" unicode="&#xe063;" 
d="M352 224c-18 0 -32 14 -32 32s14 32 32 32s32 -14 32 -32s-14 -32 -32 -32zM336 80c-9 0 -16 -7 -16 -16s7 -16 16 -16h149l-10 -32h-139c-9 0 -16 -7 -16 -16s7 -16 16 -16h128l-1 -4c-9 -26 -34 -44 -61 -44h-146v192h256l-16 -48h-160z" />
    <glyph glyph-name="head-side-virus-primary" unicode="&#xe064;" 
d="M368 240c9 0 16 -7 16 -16s-7 -16 -16 -16h-12c-29 0 -43 -34 -23 -55l9 -8c6 -6 6 -17 0 -23c-3 -3 -7 -4 -11 -4c-5 0 -9 1 -12 4l-8 9c-21 20 -55 6 -55 -23v-12c0 -9 -7 -16 -16 -16s-16 7 -16 16v12c0 29 -34 43 -55 23l-8 -9c-3 -3 -6 -4 -11 -4s-9 1 -12 4
c-6 6 -6 17 0 23l9 8c20 21 6 55 -23 55h-12c-9 0 -16 7 -16 16s7 16 16 16h12c29 0 43 34 23 55l-9 8c-6 6 -6 17 0 23s17 6 23 0l8 -9c21 -20 55 -6 55 23v12c0 9 7 16 16 16s16 -7 16 -16v-12c0 -29 34 -43 55 -23l8 9c6 6 17 6 23 0s6 -17 0 -23l-9 -8
c-20 -21 -6 -55 23 -55h12zM208 240c9 0 16 7 16 16s-7 16 -16 16s-16 -7 -16 -16s7 -16 16 -16zM272 176c9 0 16 7 16 16s-7 16 -16 16s-16 -7 -16 -16s7 -16 16 -16z" />
    <glyph glyph-name="house-user-primary" unicode="&#xe065;" horiz-adv-x="576" 
d="M352 192c0 -35 -29 -64 -64 -64s-64 29 -64 64s29 64 64 64s64 -29 64 -64zM320 96c44 0 80 -36 80 -80c0 -9 -7 -16 -16 -16h-192c-9 0 -16 7 -16 16c0 44 36 80 80 80h64zM565 216c7 -6 11 -15 11 -24c0 -7 -3 -15 -8 -21c-6 -7 -15 -11 -24 -11c-7 0 -15 3 -21 8
l-235 205l-235 -205c-6 -5 -14 -8 -21 -8c-9 0 -18 4 -24 11c-5 6 -8 14 -8 21c0 9 4 18 11 24l256 224c6 5 13 8 21 8s15 -3 21 -8l107 -94v54c0 9 7 16 16 16h64c9 0 16 -7 16 -16v-137z" />
    <glyph glyph-name="house-laptop-primary" unicode="&#xe066;" horiz-adv-x="640" 
d="M629 0c6 0 11 -5 11 -11v-10c0 -24 -19 -43 -43 -43h-298c-24 0 -43 19 -43 43v10c0 6 5 11 11 11h37v160c0 18 13 32 29 32h230c16 0 29 -14 29 -32v-160h37zM544 0v144h-192v-144h192z" />
    <glyph glyph-name="lungs-virus-primary" unicode="&#xe067;" horiz-adv-x="640" 
d="M448 144c9 0 16 -7 16 -16s-7 -16 -16 -16h-12c-29 0 -43 -34 -23 -55l9 -8c6 -6 6 -17 0 -23c-3 -3 -6 -4 -11 -4s-9 1 -12 4l-8 9c-21 20 -55 6 -55 -23v-12c0 -9 -7 -16 -16 -16s-16 7 -16 16v12c0 29 -34 43 -55 23l-8 -9c-3 -3 -6 -4 -11 -4s-9 1 -12 4
c-6 6 -6 17 0 23l9 8c20 21 6 55 -23 55h-12c-9 0 -16 7 -16 16s7 16 16 16h12c29 0 43 34 23 55l-9 8c-6 6 -6 17 0 23s17 6 23 0l8 -9c21 -20 55 -6 55 23v12c0 9 7 16 16 16s16 -7 16 -16v-12c0 -29 34 -43 55 -23l8 9c6 6 17 6 23 0s6 -17 0 -23l-9 -8
c-20 -21 -6 -55 23 -55h12zM288 144c9 0 16 7 16 16s-7 16 -16 16s-16 -7 -16 -16s7 -16 16 -16zM352 80c9 0 16 7 16 16s-7 16 -16 16s-16 -7 -16 -16s7 -16 16 -16z" />
    <glyph glyph-name="people-arrows-left-right-primary" unicode="&#xe068;" horiz-adv-x="576" 
d="M444 138l-72 -68c-3 -4 -8 -5 -13 -3c-4 2 -7 6 -7 11v36h-128v-36c0 -5 -3 -9 -7 -11c-5 -2 -10 -1 -13 3l-72 68c-5 4 -5 12 0 17l72 68c3 3 8 4 13 2c4 -2 7 -6 7 -11v-36h128v36c0 5 3 9 7 11c5 2 10 1 13 -2l72 -68c5 -5 5 -13 0 -17z" />
    <glyph glyph-name="plane-slash-primary" unicode="&#xe069;" horiz-adv-x="640" 
d="M635 -55c-8 -10 -23 -12 -34 -4l-592 464c-10 8 -12 23 -4 34c5 6 12 9 19 9c5 0 10 -2 15 -5l592 -464c10 -8 12 -23 4 -34z" />
    <glyph glyph-name="pump-medical-primary" unicode="&#xe06a;" horiz-adv-x="384" 
d="M227 155c7 0 13 -6 13 -14v-26c0 -8 -6 -14 -13 -14h-40v-40c0 -7 -6 -13 -14 -13h-26c-8 0 -14 6 -14 13v40h-40c-7 0 -13 6 -13 14v26c0 8 6 14 13 14h40v40c0 7 6 13 14 13h26c8 0 14 -6 14 -13v-40h40zM379 354c7 -6 7 -16 0 -23l-22 -22c-7 -7 -17 -7 -23 0l-43 43
h-67v-64h-128v128c0 18 14 32 32 32h64c18 0 32 -14 32 -32h67c17 0 33 -7 45 -19z" />
    <glyph glyph-name="pump-soap-primary" unicode="&#xe06b;" horiz-adv-x="384" 
d="M379 354c7 -6 7 -16 0 -23l-22 -22c-7 -7 -17 -7 -23 0l-43 43h-67v-64h-128v128c0 18 14 32 32 32h64c18 0 32 -14 32 -32h67c17 0 33 -7 45 -19zM152 188c4 5 12 5 16 0c16 -22 52 -72 52 -97c0 -33 -27 -59 -60 -59s-60 26 -60 59c0 25 36 75 52 97z" />
    <glyph glyph-name="shield-virus-primary" unicode="&#xe06c;" 
d="M384 224c9 0 16 -7 16 -16s-7 -16 -16 -16h-12c-29 0 -43 -34 -23 -55l9 -8c6 -6 6 -17 0 -23c-3 -3 -6 -4 -11 -4s-9 1 -12 4l-8 9c-21 20 -55 6 -55 -23v-12c0 -9 -7 -16 -16 -16s-16 7 -16 16v12c0 29 -34 43 -55 23l-8 -9c-3 -3 -6 -4 -11 -4s-9 1 -12 4
c-6 6 -6 17 0 23l9 8c20 21 6 55 -23 55h-12c-9 0 -16 7 -16 16s7 16 16 16h12c29 0 43 34 23 55l-9 8c-6 6 -6 17 0 23s17 6 23 0l8 -9c21 -20 55 -6 55 23v12c0 9 7 16 16 16s16 -7 16 -16v-12c0 -29 34 -43 55 -23l8 9c6 6 17 6 23 0s6 -17 0 -23l-9 -8
c-20 -21 -6 -55 23 -55h12zM224 224c9 0 16 7 16 16s-7 16 -16 16s-16 -7 -16 -16s7 -16 16 -16zM288 160c9 0 16 7 16 16s-7 16 -16 16s-16 -7 -16 -16s7 -16 16 -16z" />
    <glyph glyph-name="sink-primary" unicode="&#xe06d;" 
d="M352 336v16c0 18 -14 32 -32 32s-32 -14 -32 -32v-192h-64v188c0 47 31 89 77 98c61 12 115 -35 115 -94v-16c0 -9 -7 -16 -16 -16h-32c-9 0 -16 7 -16 16zM128 240c18 0 32 -14 32 -32v-48h-48v32h-64c-9 0 -16 7 -16 16v16c0 9 7 16 16 16h80zM464 240
c9 0 16 -7 16 -16v-16c0 -9 -7 -16 -16 -16h-64v-32h-48v48c0 18 14 32 32 32h80z" />
    <glyph glyph-name="soap-primary" unicode="&#xe06e;" 
d="M416 256c53 0 96 -43 96 -96v-128c0 -53 -43 -96 -96 -96h-320c-53 0 -96 43 -96 96v128c0 53 43 96 96 96h128c0 -25 10 -47 25 -64h-89c-53 0 -96 -43 -96 -96s43 -96 96 -96h192c53 0 96 43 96 96c0 41 -26 76 -63 90c19 17 31 42 31 70zM96 96c0 35 29 64 64 64h192
c35 0 64 -29 64 -64s-29 -64 -64 -64h-192c-35 0 -64 29 -64 64z" />
    <glyph glyph-name="stopwatch-20-primary" unicode="&#xe06f;" horiz-adv-x="448" 
d="M212 196c0 -29 -11 -55 -30 -74c-10 -10 -16 -24 -18 -38h28c11 0 20 -9 20 -20s-9 -20 -20 -20h-48c-11 0 -20 9 -20 20v14c0 27 11 53 30 72c11 12 18 28 18 44c0 13 -16 11 -16 2c0 -11 -9 -20 -20 -20s-20 9 -20 20c0 26 22 48 48 48s48 -22 48 -48zM288 244
c29 0 52 -23 52 -52v-96c0 -29 -23 -52 -52 -52s-52 23 -52 52v96c0 29 23 52 52 52zM300 96v96c0 7 -5 12 -12 12s-12 -5 -12 -12v-96c0 -7 5 -12 12 -12s12 5 12 12z" />
    <glyph glyph-name="shop-slash-primary" unicode="&#xe070;" horiz-adv-x="640" 
d="M635 -55c-8 -10 -23 -12 -34 -4l-592 464c-10 8 -12 23 -4 34c5 6 12 9 19 9c5 0 10 -2 15 -5l592 -464c10 -8 12 -23 4 -34z" />
    <glyph glyph-name="store-slash-primary" unicode="&#xe071;" horiz-adv-x="640" 
d="M635 -55c-8 -10 -23 -12 -34 -4l-592 464c-10 8 -12 23 -4 34c5 6 12 9 19 9c5 0 10 -2 15 -5l592 -464c10 -8 12 -23 4 -34z" />
    <glyph glyph-name="toilet-paper-slash-primary" unicode="&#xe072;" horiz-adv-x="640" 
d="M24 448c5 0 10 -2 15 -5l592 -464c10 -8 12 -23 4 -34c-8 -10 -23 -12 -34 -4l-592 464c-10 8 -12 23 -4 34c5 6 12 9 19 9z" />
    <glyph glyph-name="users-slash-primary" unicode="&#xe073;" horiz-adv-x="640" 
d="M635 -55c-8 -10 -23 -12 -34 -4l-592 464c-10 8 -12 23 -4 34c5 6 12 9 19 9c5 0 10 -2 15 -5l592 -464c10 -8 12 -23 4 -34z" />
    <glyph glyph-name="virus-primary" unicode="&#xe074;" horiz-adv-x="576" 
d="M256 176c-26 0 -48 22 -48 48s22 48 48 48s48 -22 48 -48s-22 -48 -48 -48z" />
    <glyph glyph-name="virus-slash-primary" unicode="&#xe075;" horiz-adv-x="640" 
d="M39 443l592 -464c10 -8 12 -23 4 -34c-8 -10 -23 -12 -34 -4l-592 464c-10 8 -12 23 -4 34c8 10 23 12 34 4z" />
    <glyph glyph-name="viruses-primary" unicode="&#xe076;" horiz-adv-x="640" 
d="M160 320c18 0 32 -14 32 -32s-14 -32 -32 -32s-32 14 -32 32s14 32 32 32zM624 96c9 0 16 -7 16 -16s-7 -16 -16 -16h-12c-29 0 -43 -34 -23 -55l9 -8c6 -6 6 -17 0 -23c-3 -3 -6 -4 -11 -4s-9 1 -12 4l-8 9c-21 20 -55 6 -55 -23v-12c0 -9 -7 -16 -16 -16s-16 7 -16 16
v12c0 29 -34 43 -55 23l-8 -9c-3 -3 -6 -4 -11 -4s-9 1 -12 4c-6 6 -6 17 0 23l9 8c20 21 6 55 -23 55h-12c-9 0 -16 7 -16 16s7 16 16 16h12c29 0 43 34 23 55l-9 8c-6 6 -6 17 0 23s17 6 23 0l8 -9c21 -20 55 -6 55 23v12c0 9 7 16 16 16s16 -7 16 -16v-12
c0 -29 34 -43 55 -23l8 9c6 6 17 6 23 0s6 -17 0 -23l-9 -8c-20 -21 -6 -55 23 -55h12zM480 64c18 0 32 14 32 32s-14 32 -32 32s-32 -14 -32 -32s14 -32 32 -32z" />
    <glyph glyph-name="vest-primary" unicode="&#xe085;" horiz-adv-x="448" 
d="M437 208c7 -10 11 -23 11 -35v-205c0 -18 -14 -32 -32 -32h-192v224l96 288h32c18 0 32 -14 32 -32v-128zM387 29c7 6 7 16 0 22l-48 48c-6 7 -15 6 -22 0s-7 -16 0 -22l48 -48c3 -3 7 -5 11 -5s8 2 11 5zM96 448h32l79 -237l-13 -41l-2 -5v-229h-160
c-18 0 -32 14 -32 32v205c0 12 4 25 11 35l53 80v128c0 18 14 32 32 32zM131 77c7 6 6 15 0 22s-16 7 -22 0l-48 -48c-7 -6 -7 -16 0 -22c3 -3 7 -5 11 -5s8 2 11 5z" />
    <glyph glyph-name="vest-patches-primary" unicode="&#xe086;" horiz-adv-x="448" 
d="M96 448h32l79 -237l-13 -41l-2 -5v-229h-160c-18 0 -32 14 -32 32v205c0 12 4 25 11 35l53 80v128c0 18 14 32 32 32zM96 -8c22 0 40 18 40 40s-18 40 -40 40s-40 -18 -40 -40s18 -40 40 -40zM129 175c4 5 4 13 -1 17c-4 5 -12 5 -17 0l-15 -15l-16 15c-4 5 -12 5 -17 0
c-4 -4 -4 -12 0 -17l16 -15l-16 -15c-4 -5 -4 -13 0 -17c3 -3 6 -4 9 -4s6 1 9 4l15 15l15 -15c3 -3 6 -4 9 -4s6 1 8 4c5 4 5 12 0 17l-15 15zM437 208c7 -10 11 -23 11 -35v-205c0 -18 -14 -32 -32 -32h-192v224l96 288h32c18 0 32 -14 32 -32v-128zM359 112
c15 0 26 13 25 27c-1 13 -13 22 -26 22h-5v5c1 13 -9 25 -22 26c-14 1 -27 -10 -27 -25v-48c0 -4 3 -7 7 -7h48z" />
    <glyph glyph-name="0-primary" unicode="&#xe089;" horiz-adv-x="320" 
 />
    <glyph glyph-name="1-primary" unicode="&#xe08a;" horiz-adv-x="256" 
 />
    <glyph glyph-name="2-primary" unicode="&#xe08b;" horiz-adv-x="320" 
 />
    <glyph glyph-name="3-primary" unicode="&#xe08c;" horiz-adv-x="320" 
 />
    <glyph glyph-name="4-primary" unicode="&#xe08d;" horiz-adv-x="384" 
 />
    <glyph glyph-name="5-primary" unicode="&#xe08e;" horiz-adv-x="320" 
 />
    <glyph glyph-name="6-primary" unicode="&#xe08f;" horiz-adv-x="320" 
 />
    <glyph glyph-name="7-primary" unicode="&#xe090;" horiz-adv-x="320" 
 />
    <glyph glyph-name="8-primary" unicode="&#xe091;" horiz-adv-x="320" 
 />
    <glyph glyph-name="9-primary" unicode="&#xe092;" horiz-adv-x="320" 
 />
    <glyph glyph-name="a-primary" unicode="&#xe093;" horiz-adv-x="384" 
 />
    <glyph glyph-name="alt-primary" unicode="&#xe094;" 
d="M480 416c18 0 32 -14 32 -32v-32c0 -18 -14 -32 -32 -32h-72l-241 -332c-9 -13 -24 -20 -39 -20h-96c-18 0 -32 14 -32 32v32c0 18 14 32 32 32h72l241 332c9 13 24 20 39 20h96z" />
    <glyph glyph-name="ampersand-primary" unicode="&#xe095;" horiz-adv-x="384" 
d="M270 148l40 59c13 18 38 23 56 10c18 -12 23 -37 11 -56l-52 -74z" />
    <glyph glyph-name="arrow-down-left-and-arrow-up-right-to-center-primary" unicode="&#xe096;" 
d="M304 217c-9 0 -17 4 -23 10c-5 6 -9 14 -9 22v144c0 9 7 16 16 16h32c9 0 16 -7 16 -16v-66l115 114c12 13 32 13 45 0v0c13 -12 13 -32 0 -45l-115 -115h67c9 0 16 -7 16 -16v-32c0 -8 -7 -16 -16 -16h-144z" />
    <glyph glyph-name="arrow-down-to-square-primary" unicode="&#xe097;" horiz-adv-x="448" 
d="M308 201c14 -11 16 -31 5 -45l-64 -80c-6 -8 -15 -12 -25 -12s-19 4 -25 12l-64 80c-11 14 -9 34 5 45s34 9 45 -5l7 -9v229c0 18 14 32 32 32s32 -14 32 -32v-229l7 9c11 14 31 16 45 5z" />
    <glyph glyph-name="arrow-up-arrow-down-primary" unicode="&#xe098;" horiz-adv-x="384" 
d="M204 105c14 11 34 9 45 -5l7 -9v293c0 18 14 32 32 32s32 -14 32 -32v-293l7 9c11 14 31 16 45 5s16 -31 5 -45l-64 -80c-6 -8 -15 -12 -25 -12s-19 4 -25 12l-64 80c-11 14 -9 34 5 45z" />
    <glyph glyph-name="arrow-up-from-square-primary" unicode="&#xe099;" horiz-adv-x="448" 
d="M313 356c11 -14 9 -34 -5 -45c-6 -5 -13 -7 -20 -7c-9 0 -19 4 -25 12l-7 9v-197c0 -18 -14 -32 -32 -32s-32 14 -32 32v197l-7 -9c-11 -14 -31 -16 -45 -5s-16 31 -5 45l64 80c12 15 38 15 50 0z" />
    <glyph glyph-name="arrow-up-right-and-arrow-down-left-from-center-primary" unicode="&#xe09a;" 
d="M480 448c9 0 17 -4 23 -9c6 -6 9 -14 9 -23v-144c0 -9 -7 -16 -16 -16h-32c-8 0 -16 7 -16 16v67l-114 -115c-13 -13 -33 -13 -46 0v0c-12 13 -12 33 0 45l115 115h-67c-8 0 -16 7 -16 16v32c0 9 8 16 16 16h144z" />
    <glyph glyph-name="arrows-minimize-primary" unicode="&#xe09b;" 
d="M208 421c9 0 16 -7 16 -16v-144c0 -9 -3 -17 -9 -23s-14 -9 -23 -9h-144c-9 0 -16 7 -16 16v32c0 9 7 16 16 16h67l-110 110c-7 6 -7 16 0 22l22 23c7 6 17 6 23 0l110 -110v67c0 9 7 16 16 16h32zM507 -9c7 -7 7 -17 0 -23l-22 -23c-7 -6 -17 -6 -23 0l-110 110v-66
c0 -9 -7 -16 -16 -16h-32c-9 0 -16 7 -16 16v144c0 9 3 16 9 22s14 10 23 10h144c9 0 16 -7 16 -16v-32c0 -9 -7 -16 -16 -16h-67z" />
    <glyph glyph-name="austral-sign-primary" unicode="&#xe09c;" horiz-adv-x="448" 
d="M414 11c8 -21 -8 -43 -30 -43h-17c-13 0 -25 8 -30 21l-113 314l-113 -314c-5 -13 -17 -21 -30 -21h-17c-22 0 -38 22 -30 43l137 379c5 15 20 26 37 26h32c17 0 32 -11 37 -26z" />
    <glyph glyph-name="b-primary" unicode="&#xe09d;" horiz-adv-x="320" 
 />
    <glyph glyph-name="baht-sign-primary" unicode="&#xe09e;" horiz-adv-x="320" 
d="M272 215c29 -22 48 -56 48 -95c0 -66 -54 -120 -120 -120h-168c-18 0 -32 14 -32 32v320c0 18 14 32 32 32h144c62 0 112 -50 112 -112c0 -21 -6 -40 -16 -57zM80 304v-64h96c18 0 32 14 32 32s-14 32 -32 32h-96zM200 80c22 0 40 18 40 40s-18 40 -40 40h-120v-80h120z
" />
    <glyph glyph-name="basket-shopping-simple-primary" unicode="&#xe09f;" horiz-adv-x="576" 
d="M243 445c12 -6 16 -20 10 -32l-104 -200c-4 -8 -12 -13 -21 -13c-4 0 -7 1 -11 3c-12 6 -16 20 -10 32l104 200c6 12 20 16 32 10zM469 235c6 -12 2 -26 -10 -32c-3 -2 -7 -3 -11 -3c-9 0 -17 5 -21 13l-104 200c-6 12 -2 26 10 32s26 2 32 -10z" />
    <glyph glyph-name="battery-exclamation-primary" unicode="&#xe0a0;" horiz-adv-x="576" 
d="M272 128c-18 0 -32 14 -32 32v192c0 18 14 32 32 32s32 -14 32 -32v-192c0 -18 -14 -32 -32 -32zM272 88c22 0 40 -18 40 -40s-18 -40 -40 -40s-40 18 -40 40s18 40 40 40z" />
    <glyph glyph-name="battery-low-primary" unicode="&#xe0a1;" horiz-adv-x="576" 
d="M144 256v-128h-48v128h48z" />
    <glyph glyph-name="bee-primary" unicode="&#xe0a2;" horiz-adv-x="576" 
d="M342 277c26 -11 48 -29 64 -53h-236c15 24 38 42 64 53c-5 4 -9 9 -13 14c-5 9 -9 18 -12 29c-1 5 -1 10 -1 16c0 20 8 39 20 53l-31 32c-7 6 -6 15 0 22s16 7 22 0l35 -35c6 3 11 5 18 6c5 1 10 2 16 2c12 0 23 -3 33 -8l35 35c7 7 17 6 23 0s6 -16 0 -22l-32 -32
c13 -14 21 -33 21 -53c0 -6 -1 -11 -2 -16c-2 -11 -6 -20 -12 -29c-3 -5 -8 -10 -12 -14zM234 -16c-13 14 -28 30 -41 48h190c-14 -18 -28 -34 -42 -48h-107zM421 192c4 -14 8 -29 8 -45c0 -1 -1 -2 -1 -3h-281v3c0 16 3 31 8 45h266zM172 64c-8 15 -15 32 -20 48h272
c-5 -16 -12 -33 -21 -48h-231z" />
    <glyph glyph-name="beer-mug-primary" unicode="&#xe0a3;" 
d="M432 288c44 0 80 -36 80 -80v-99c0 -32 -19 -60 -47 -73l-81 -36c0 -35 -29 -64 -64 -64h-224c-35 0 -64 29 -64 64v285c14 -8 31 -13 48 -13c18 0 36 5 51 15c0 0 0 -1 1 -1c20 -19 48 -30 76 -30s56 11 76 30c1 0 1 1 1 1c15 -10 33 -15 51 -15c19 0 37 6 52 16h44z
M160 16v192c0 9 -7 16 -16 16s-16 -7 -16 -16v-192c0 -9 7 -16 16 -16s16 7 16 16zM224 16v192c0 9 -7 16 -16 16s-16 -7 -16 -16v-192c0 -9 7 -16 16 -16s16 7 16 16zM288 16v192c0 9 -7 16 -16 16s-16 -7 -16 -16v-192c0 -9 7 -16 16 -16s16 7 16 16zM448 109v99
c0 9 -7 16 -16 16h-48v-154l54 24c6 3 10 9 10 15z" />
    <glyph glyph-name="bitcoin-sign-primary" unicode="&#xe0a4;" horiz-adv-x="320" 
d="M272 215c29 -22 48 -56 48 -95c0 -66 -54 -120 -120 -120h-168c-18 0 -32 14 -32 32v320c0 18 14 32 32 32h144c62 0 112 -50 112 -112c0 -21 -6 -40 -16 -57zM80 304v-64h96c18 0 32 14 32 32s-14 32 -32 32h-96zM200 80c22 0 40 18 40 40s-18 40 -40 40h-120v-80h120z
" />
    <glyph glyph-name="book-font-primary" unicode="&#xe0a5;" horiz-adv-x="448" 
d="M240 332l38 -76h-76zM96 64c-18 0 -32 -14 -32 -32s14 -32 32 -32h328c13 0 24 -11 24 -24v-16c0 -13 -11 -24 -24 -24h-328c-53 0 -96 43 -96 96v320c0 53 43 96 96 96h320c18 0 32 -14 32 -32v-328c0 -13 -11 -24 -24 -24h-328zM130 183c-4 -8 -1 -17 7 -21s17 -1 21 7
l28 55h108l28 -55c2 -6 8 -9 14 -9c2 0 5 1 7 2c8 4 11 13 7 21l-96 192c-5 11 -23 11 -28 0z" />
    <glyph glyph-name="book-open-cover-primary" unicode="&#xe0a6;" horiz-adv-x="640" 
d="M313 -63l-288 64c-15 3 -25 16 -25 31v352c0 21 20 36 40 31l24 -6v-326c0 -15 10 -28 25 -31l231 -51l231 51c15 3 25 16 25 31v326l24 6c20 5 40 -10 40 -31v-352c0 -15 -10 -28 -25 -31l-288 -64c-5 -1 -9 -1 -14 0z" />
    <glyph glyph-name="bookmark-slash-primary" unicode="&#xe0a7;" horiz-adv-x="640" 
d="M631 -21c10 -8 12 -23 4 -34c-8 -10 -23 -12 -34 -4l-592 464c-10 8 -12 23 -4 34c5 6 12 9 19 9c5 0 10 -2 15 -5z" />
    <glyph glyph-name="bowling-ball-pin-primary" unicode="&#xe0a8;" horiz-adv-x="576" 
d="M438 288h84v-32h-84v32zM208 352c115 0 208 -93 208 -208s-93 -208 -208 -208s-208 93 -208 208s93 208 208 208zM123 203c14 0 26 12 26 26c0 15 -12 27 -26 27c-15 0 -27 -12 -27 -27c0 -14 12 -26 27 -26zM197 160c15 0 27 13 27 27s-12 26 -27 26
c-14 0 -26 -11 -26 -26s12 -27 26 -27zM197 248c15 0 27 13 27 27s-12 26 -27 26c-14 0 -26 -11 -26 -26s12 -27 26 -27z" />
    <glyph glyph-name="box-circle-check-primary" unicode="&#xe0a9;" horiz-adv-x="640" 
d="M415 349c-48 -7 -91 -29 -124 -61h-51v128h120c14 0 26 -9 31 -22zM56 394c5 13 17 22 31 22h121v-128h-207l-1 1zM448 320c106 0 192 -86 192 -192s-86 -192 -192 -192s-192 86 -192 192s86 192 192 192zM537 159c9 9 10 25 0 34s-25 9 -34 0l-79 -79l-31 31
c-10 9 -24 9 -34 0s-10 -25 0 -34l48 -48c4 -5 11 -7 17 -7s12 2 17 7z" />
    <glyph glyph-name="bracket-curly-primary" unicode="&#xe0aa;" horiz-adv-x="256" 
 />
    <glyph glyph-name="bracket-round-primary" unicode="&#xe0ab;" horiz-adv-x="256" 
 />
    <glyph glyph-name="bracket-square-primary" unicode="&#xe0ac;" horiz-adv-x="256" 
 />
    <glyph glyph-name="brackets-round-primary" unicode="&#xe0ad;" 
d="M128 -32c-6 0 -12 2 -18 5c-4 3 -110 76 -110 219s106 216 110 219c15 9 35 5 45 -9c9 -15 5 -35 -9 -45c-4 -2 -82 -57 -82 -165s79 -163 82 -165c14 -10 18 -30 8 -45c-6 -9 -16 -14 -26 -14z" />
    <glyph glyph-name="brake-warning-primary" unicode="&#xe0ae;" horiz-adv-x="640" 
d="M342 320c10 0 17 -8 16 -18l-12 -128c-1 -8 -8 -14 -16 -14h-20c-8 0 -15 6 -16 14l-12 128c-1 10 6 18 16 18h44zM320 128c18 0 32 -14 32 -32s-14 -32 -32 -32s-32 14 -32 32s14 32 32 32zM101 378c7 -5 8 -15 2 -21c-36 -48 -55 -106 -55 -165s19 -117 55 -164
c6 -7 5 -17 -2 -22l-12 -11c-7 -6 -18 -5 -23 2c-43 56 -66 125 -66 195s23 139 66 195c5 7 16 8 23 2zM573 388c43 -56 67 -125 67 -196s-24 -140 -67 -196c-6 -8 -16 -8 -23 -2l-13 10c-6 6 -7 15 -2 22c37 47 57 106 57 166s-20 118 -57 166c-5 7 -4 16 2 22l12 10
c7 6 18 6 24 -2z" />
    <glyph glyph-name="browsers-primary" unicode="&#xe0af;" horiz-adv-x="576" 
d="M512 448c35 0 64 -29 64 -64v-128h-480v128c0 35 29 64 64 64h352zM224 332v40c0 7 -5 12 -12 12h-40c-7 0 -12 -5 -12 -12v-40c0 -7 5 -12 12 -12h40c7 0 12 5 12 12zM512 332v40c0 7 -5 12 -12 12h-232c-7 0 -12 -5 -12 -12v-40c0 -7 5 -12 12 -12h232c7 0 12 5 12 12z
M48 16c0 -18 14 -32 32 -32h400c0 -26 -22 -48 -48 -48h-368c-35 0 -64 29 -64 64v304c0 26 22 48 48 48v-336z" />
    <glyph glyph-name="burger-fries-primary" unicode="&#xe0b0;" horiz-adv-x="640" 
d="M624 0c9 0 16 -7 16 -16c0 -26 -22 -48 -48 -48h-256c-26 0 -48 22 -48 48c0 9 7 16 16 16h320zM320 32c-18 0 -32 14 -32 32s14 32 32 32h288c18 0 32 -14 32 -32s-14 -32 -32 -32h-288zM319 128c-25 0 -40 29 -25 51c29 43 94 77 170 77s141 -34 170 -77
c15 -22 0 -51 -25 -51h-290zM544 208c-9 0 -16 -7 -16 -16s7 -16 16 -16s16 7 16 16s-7 16 -16 16zM464 224c-9 0 -16 -7 -16 -16s7 -16 16 -16s16 7 16 16s-7 16 -16 16zM384 208c-9 0 -16 -7 -16 -16s7 -16 16 -16s16 7 16 16s-7 16 -16 16z" />
    <glyph glyph-name="burger-glass-primary" unicode="&#xe0b1;" horiz-adv-x="640" 
d="M624 0c9 0 16 -7 16 -16c0 -26 -22 -48 -48 -48h-256c-26 0 -48 22 -48 48c0 9 7 16 16 16h320zM320 32c-18 0 -32 14 -32 32s14 32 32 32h288c18 0 32 -14 32 -32s-14 -32 -32 -32h-288zM319 128c-25 0 -40 29 -25 51c29 43 94 77 170 77s141 -34 170 -77
c15 -22 0 -51 -25 -51h-290zM544 208c-9 0 -16 -7 -16 -16s7 -16 16 -16s16 7 16 16s-7 16 -16 16zM464 224c-9 0 -16 -7 -16 -16s7 -16 16 -16s16 7 16 16s-7 16 -16 16zM384 208c-9 0 -16 -7 -16 -16s7 -16 16 -16s16 7 16 16s-7 16 -16 16z" />
    <glyph glyph-name="c-primary" unicode="&#xe0b2;" horiz-adv-x="384" 
 />
    <glyph glyph-name="cable-car-primary" unicode="&#xe0b3;" 
d="M416 224c35 0 64 -29 64 -64v-160c0 -35 -29 -64 -64 -64h-320c-35 0 -64 29 -64 64v160c0 35 29 64 64 64h144v83l32 9v-92h144zM176 64v96h-96v-96h96zM304 64v96h-96v-96h96zM432 64v96h-96v-96h96zM192 352c-18 0 -32 14 -32 32s14 32 32 32s32 -14 32 -32
s-14 -32 -32 -32zM288 384c-18 0 -32 14 -32 32s14 32 32 32s32 -14 32 -32s-14 -32 -32 -32z" />
    <glyph glyph-name="calendar-arrow-down-primary" unicode="&#xe0b4;" horiz-adv-x="448" 
d="M400 384c26 0 48 -22 48 -48v-80h-448v80c0 26 22 48 48 48h48v48c0 9 7 16 16 16h32c9 0 16 -7 16 -16v-48h128v48c0 9 7 16 16 16h32c9 0 16 -7 16 -16v-48h48zM287 121c9 9 25 9 34 0s9 -25 0 -34l-80 -80c-9 -9 -25 -9 -34 0l-80 80c-9 9 -9 25 0 34c5 5 11 7 17 7
s12 -2 17 -7l39 -39v102c0 13 11 24 24 24s24 -11 24 -24v-102z" />
    <glyph glyph-name="calendar-arrow-up-primary" unicode="&#xe0b5;" horiz-adv-x="448" 
d="M400 384c26 0 48 -22 48 -48v-80h-448v80c0 26 22 48 48 48h48v48c0 9 7 16 16 16h32c9 0 16 -7 16 -16v-48h128v48c0 9 7 16 16 16h32c9 0 16 -7 16 -16v-48h48zM241 201l80 -80c9 -9 9 -25 0 -34c-5 -5 -11 -7 -17 -7s-12 2 -17 7l-39 39v-102c0 -13 -11 -24 -24 -24
s-24 11 -24 24v102l-39 -39c-9 -9 -25 -9 -34 0s-9 25 0 34l80 80c9 9 25 9 34 0z" />
    <glyph glyph-name="calendar-clock-primary" unicode="&#xe0b6;" horiz-adv-x="576" 
d="M448 336v-80h-448v80c0 26 22 48 48 48h48v48c0 9 7 16 16 16h32c9 0 16 -7 16 -16v-48h128v48c0 9 7 16 16 16h32c9 0 16 -7 16 -16v-48h48c26 0 48 -22 48 -48zM480 96c9 0 16 -7 16 -16s-7 -16 -16 -16h-54c-6 0 -10 4 -10 10v70c0 9 7 16 16 16s16 -7 16 -16v-48h32z
" />
    <glyph glyph-name="calendar-heart-primary" unicode="&#xe0b7;" horiz-adv-x="448" 
d="M400 384c26 0 48 -22 48 -48v-80h-448v80c0 26 22 48 48 48h48v48c0 9 7 16 16 16h32c9 0 16 -7 16 -16v-48h128v48c0 9 7 16 16 16h32c9 0 16 -7 16 -16v-48h48zM232 173c22 22 57 26 80 6c27 -23 29 -64 5 -89l-83 -86c-6 -5 -14 -5 -20 0l-83 86c-24 25 -22 66 5 89
c23 20 58 16 79 -6l9 -9z" />
    <glyph glyph-name="calendar-image-primary" unicode="&#xe0b8;" horiz-adv-x="448" 
d="M400 384c26 0 48 -22 48 -48v-80h-448v80c0 26 22 48 48 48h48v48c0 9 7 16 16 16h32c9 0 16 -7 16 -16v-48h128v48c0 9 7 16 16 16h32c9 0 16 -7 16 -16v-48h48zM184 73l53 80c3 4 8 7 14 7s10 -3 13 -7l85 -128c4 -5 4 -11 1 -17c-3 -5 -8 -8 -14 -8h-224
c-6 0 -12 3 -14 9c-3 5 -2 12 1 16l47 64c3 5 8 7 13 7s10 -2 13 -7z" />
    <glyph glyph-name="calendar-lines-primary" unicode="&#xe0b9;" horiz-adv-x="448" 
d="M336 160c9 0 16 -7 16 -16s-7 -16 -16 -16h-224c-9 0 -16 7 -16 16s7 16 16 16h224zM240 64c9 0 16 -7 16 -16s-7 -16 -16 -16h-128c-9 0 -16 7 -16 16s7 16 16 16h128zM400 384c26 0 48 -22 48 -48v-80h-448v80c0 26 22 48 48 48h48v48c0 9 7 16 16 16h32
c9 0 16 -7 16 -16v-48h128v48c0 9 7 16 16 16h32c9 0 16 -7 16 -16v-48h48z" />
    <glyph glyph-name="calendar-range-primary" unicode="&#xe0ba;" horiz-adv-x="448" 
d="M400 384c26 0 48 -22 48 -48v-80h-448v80c0 26 22 48 48 48h48v48c0 9 7 16 16 16h32c9 0 16 -7 16 -16v-48h128v48c0 9 7 16 16 16h32c9 0 16 -7 16 -16v-48h48zM112 128h-32c-9 0 -16 7 -16 16v32c0 9 7 16 16 16h32c9 0 16 -7 16 -16v-32c0 -9 -7 -16 -16 -16zM368 64
c9 0 16 -7 16 -16v-32c0 -9 -7 -16 -16 -16h-32c-9 0 -16 7 -16 16v32c0 9 7 16 16 16h32zM360 184c13 0 24 -11 24 -24s-11 -24 -24 -24h-176c-13 0 -24 11 -24 24s11 24 24 24h176zM264 56c13 0 24 -11 24 -24s-11 -24 -24 -24h-176c-13 0 -24 11 -24 24s11 24 24 24h176z
" />
    <glyph glyph-name="calendars-primary" unicode="&#xe0bb;" 
d="M464 384c26 0 48 -22 48 -48v-80h-416v80c0 26 22 48 48 48h48v48c0 9 7 16 16 16h32c9 0 16 -7 16 -16v-48h96v48c0 9 7 16 16 16h32c9 0 16 -7 16 -16v-48h48zM48 16c0 -18 14 -32 32 -32h336c0 -26 -22 -48 -48 -48h-304c-35 0 -64 29 -64 64v240c0 26 22 48 48 48
v-272z" />
    <glyph glyph-name="camera-viewfinder-primary" unicode="&#xe0bc;" 
d="M384 128c0 -18 -14 -32 -32 -32h-192c-18 0 -32 14 -32 32v128c0 18 14 32 32 32h36l6 16c4 10 13 16 23 16h62c10 0 19 -6 23 -16l6 -16h36c18 0 32 -14 32 -32v-128zM256 144c26 0 48 22 48 48s-22 48 -48 48s-48 -22 -48 -48s22 -48 48 -48z" />
    <glyph glyph-name="cedi-sign-primary" unicode="&#xe0bd;" horiz-adv-x="384" 
d="M226 0c-52 0 -100 20 -137 56s-57 85 -57 136s20 100 57 136s85 56 137 56c43 0 83 -13 116 -38c12 -9 13 -26 3 -37l-23 -23c-9 -8 -21 -9 -31 -3c-43 30 -107 26 -145 -12c-21 -21 -33 -49 -33 -79s12 -58 33 -79c38 -38 102 -42 145 -12c10 6 23 5 31 -3l23 -23
c10 -11 9 -28 -3 -37c-33 -25 -73 -38 -116 -38z" />
    <glyph glyph-name="cent-sign-primary" unicode="&#xe0be;" horiz-adv-x="320" 
d="M194 0c-52 0 -100 20 -137 56s-57 85 -57 136s20 100 57 136s85 56 137 56c43 0 83 -13 116 -38c12 -9 13 -26 3 -37l-23 -23c-9 -8 -21 -9 -31 -3c-43 30 -107 26 -145 -12c-21 -21 -33 -49 -33 -79s12 -58 33 -79c38 -38 102 -42 145 -12c10 6 23 5 31 -3l23 -23
c10 -11 9 -28 -3 -37c-33 -25 -73 -38 -116 -38z" />
    <glyph glyph-name="chart-bullet-primary" unicode="&#xe0bf;" 
d="M32 224c-18 0 -32 14 -32 32v96c0 18 14 32 32 32h128v-64h-80c-9 0 -16 -7 -16 -16s7 -16 16 -16h80v-64h-128zM304 96c9 0 16 -7 16 -16s-7 -16 -16 -16h-48v32h48zM64 80c0 -9 7 -16 16 -16h176v-64h-224c-18 0 -32 14 -32 32v96c0 18 14 32 32 32h224v-64h-176
c-9 0 -16 -7 -16 -16zM368 176c9 0 16 -7 16 -16v-160c0 -9 -7 -16 -16 -16s-16 7 -16 16v160c0 9 7 16 16 16zM256 288h-96v32h96v64c0 9 7 16 16 16s16 -7 16 -16v-64h80c9 0 16 -7 16 -16s-7 -16 -16 -16h-80v-64c0 -9 -7 -16 -16 -16s-16 7 -16 16v64z" />
    <glyph glyph-name="chart-candlestick-primary" unicode="&#xe0c0;" 
d="M400 128c-9 0 -16 7 -16 16v96c0 9 7 16 16 16h16v48c0 9 7 16 16 16s16 -7 16 -16v-48h16c9 0 16 -7 16 -16v-96c0 -9 -7 -16 -16 -16h-16v-48c0 -9 -7 -16 -16 -16s-16 7 -16 16v48h-16zM272 192c-9 0 -16 7 -16 16v128c0 9 7 16 16 16h16v48c0 9 7 16 16 16
s16 -7 16 -16v-48h16c9 0 16 -7 16 -16v-128c0 -9 -7 -16 -16 -16h-16v-48c0 -9 -7 -16 -16 -16s-16 7 -16 16v48h-16zM144 128c-9 0 -16 7 -16 16v160c0 9 7 16 16 16h16v48c0 9 7 16 16 16s16 -7 16 -16v-48h16c9 0 16 -7 16 -16v-160c0 -9 -7 -16 -16 -16h-16v-48
c0 -9 -7 -16 -16 -16s-16 7 -16 16v48h-16z" />
    <glyph glyph-name="chart-column-primary" unicode="&#xe0c1;" 
d="M371 256c7 0 13 -6 13 -13v-134c0 -7 -6 -13 -13 -13h-38c-7 0 -13 6 -13 13v134c0 7 6 13 13 13h38zM467 352c7 0 13 -6 13 -13v-230c0 -7 -6 -13 -13 -13h-38c-7 0 -13 6 -13 13v230c0 7 6 13 13 13h38zM275 320c7 0 13 -6 13 -13v-198c0 -7 -6 -13 -13 -13h-38
c-7 0 -13 6 -13 13v198c0 7 6 13 13 13h38zM179 192c7 0 13 -6 13 -13v-70c0 -7 -6 -13 -13 -13h-38c-7 0 -13 6 -13 13v70c0 7 6 13 13 13h38z" />
    <glyph glyph-name="chart-gantt-primary" unicode="&#xe0c2;" 
d="M352 147c0 7 6 13 13 13h102c7 0 13 -6 13 -13v-38c0 -7 -6 -13 -13 -13h-102c-7 0 -13 6 -13 13v38zM192 243c0 7 6 13 13 13h166c7 0 13 -6 13 -13v-38c0 -7 -6 -13 -13 -13h-166c-7 0 -13 6 -13 13v38zM141 288c-7 0 -13 6 -13 13v38c0 7 6 13 13 13h134
c7 0 13 -6 13 -13v-38c0 -7 -6 -13 -13 -13h-134z" />
    <glyph glyph-name="chart-line-up-primary" unicode="&#xe0c3;" 
d="M101 155c-7 7 -7 17 0 23l84 85c13 12 33 12 46 0l73 -74l62 62l-41 42c-10 10 -3 27 11 27h128c9 0 16 -7 16 -16v-128c0 -13 -17 -22 -27 -11l-42 41l-84 -85c-7 -6 -15 -9 -23 -9s-16 3 -23 9l-73 74l-62 -62c-6 -7 -16 -7 -23 0z" />
    <glyph glyph-name="chart-pyramid-primary" unicode="&#xe0c4;" 
d="M450 128h-387l75 128h237z" />
    <glyph glyph-name="chart-radar-primary" unicode="&#xe0c5;" 
d="M331 166c16 -5 29 -20 29 -38c0 -22 -18 -40 -40 -40c-16 0 -29 9 -36 23l-98 19c-7 -6 -16 -10 -26 -10c-22 0 -40 18 -40 40s18 40 40 40v0l58 78c-1 3 -2 6 -2 10c0 22 18 40 40 40s40 -18 40 -40c0 -7 -3 -14 -6 -20zM202 176l79 -16l-31 79z" />
    <glyph glyph-name="chart-scatter-3d-primary" unicode="&#xe0c6;" 
d="M128 256c-18 0 -32 14 -32 32s14 32 32 32s32 -14 32 -32s-14 -32 -32 -32zM32 352c-18 0 -32 14 -32 32s14 32 32 32s32 -14 32 -32s-14 -32 -32 -32zM384 160c-18 0 -32 14 -32 32s14 32 32 32s32 -14 32 -32s-14 -32 -32 -32zM384 352c-18 0 -32 14 -32 32
s14 32 32 32s32 -14 32 -32s-14 -32 -32 -32zM256 32c18 0 32 -14 32 -32s-14 -32 -32 -32s-32 14 -32 32s14 32 32 32zM480 320c18 0 32 -14 32 -32s-14 -32 -32 -32s-32 14 -32 32s14 32 32 32zM64 192c0 -18 -14 -32 -32 -32s-32 14 -32 32s14 32 32 32s32 -14 32 -32z
" />
    <glyph glyph-name="chart-scatter-bubble-primary" unicode="&#xe0c7;" 
d="M352 96c-35 0 -64 29 -64 64s29 64 64 64s64 -29 64 -64s-29 -64 -64 -64zM384 256c-35 0 -64 29 -64 64s29 64 64 64s64 -29 64 -64s-29 -64 -64 -64zM176 96c-26 0 -48 22 -48 48s22 48 48 48s48 -22 48 -48s-22 -48 -48 -48zM240 224c-26 0 -48 22 -48 48s22 48 48 48
s48 -22 48 -48s-22 -48 -48 -48z" />
    <glyph glyph-name="chart-tree-map-primary" unicode="&#xe0c8;" 
d="M192 416c18 0 32 -14 32 -32v-144c0 -18 -14 -32 -32 -32h-160c-18 0 -32 14 -32 32v144c0 18 14 32 32 32h160zM480 96c18 0 32 -14 32 -32v-64c0 -18 -14 -32 -32 -32h-192c-18 0 -32 14 -32 32v64c0 18 14 32 32 32h192zM480 416c18 0 32 -14 32 -32v-64
c0 -18 -14 -32 -32 -32h-192c-18 0 -32 14 -32 32v64c0 18 14 32 32 32h192z" />
    <glyph glyph-name="chart-waterfall-primary" unicode="&#xe0c9;" 
d="M333 256c-7 0 -13 6 -13 13v102c0 7 6 13 13 13h38c7 0 13 -6 13 -13v-102c0 -7 -6 -13 -13 -13h-38zM237 192c-7 0 -13 6 -13 13v102c0 7 6 13 13 13h38c7 0 13 -6 13 -13v-102c0 -7 -6 -13 -13 -13h-38zM429 96c-7 0 -13 6 -13 13v262c0 7 6 13 13 13h38
c7 0 13 -6 13 -13v-262c0 -7 -6 -13 -13 -13h-38zM141 96c-7 0 -13 6 -13 13v102c0 7 6 13 13 13h38c7 0 13 -6 13 -13v-102c0 -7 -6 -13 -13 -13h-38z" />
    <glyph glyph-name="circle-0-primary" unicode="&#xe0ca;" 
d="M256 320c53 0 96 -43 96 -96v-64c0 -53 -43 -96 -96 -96s-96 43 -96 96v64c0 53 43 96 96 96zM304 160v64c0 26 -22 48 -48 48s-48 -22 -48 -48v-64c0 -26 22 -48 48 -48s48 22 48 48z" />
    <glyph glyph-name="circle-1-primary" unicode="&#xe0cb;" 
d="M344 88c0 -13 -11 -24 -24 -24h-128c-13 0 -24 11 -24 24s11 24 24 24h40v139l-15 -10c-11 -7 -26 -4 -33 7s-4 26 7 33l52 35c7 5 17 5 24 1c8 -4 13 -12 13 -21v-184h40c13 0 24 -11 24 -24z" />
    <glyph glyph-name="circle-2-primary" unicode="&#xe0cc;" 
d="M352 114c0 -14 -11 -24 -24 -24h-144c-10 0 -19 6 -22 15c-4 9 -1 20 6 26l108 99c7 7 12 17 12 27s-5 21 -12 29c-17 16 -43 16 -59 0l-11 -11c-10 -9 -25 -9 -34 0c-10 10 -9 25 0 34l11 11c35 34 91 34 126 0c17 -17 27 -39 27 -63s-10 -46 -27 -62l-63 -57h82
c13 0 24 -11 24 -24z" />
    <glyph glyph-name="circle-3-primary" unicode="&#xe0cd;" 
d="M352 148c0 -46 -38 -84 -84 -84h-45c-28 0 -53 18 -62 45c-4 12 3 26 15 30c13 4 27 -2 31 -15c2 -7 9 -12 16 -12h45c20 0 36 16 36 36s-16 36 -36 36h-52c-10 0 -19 6 -22 15c-4 10 -2 20 6 27l50 46h-66c-13 0 -24 11 -24 24s11 24 24 24h128c10 0 19 -6 22 -15
c4 -10 2 -20 -6 -27l-51 -47c42 -4 75 -40 75 -83z" />
    <glyph glyph-name="circle-4-primary" unicode="&#xe0ce;" 
d="M352 152c0 -13 -11 -24 -24 -24h-8v-40c0 -13 -11 -24 -24 -24s-24 11 -24 24v40h-102c-8 0 -16 4 -20 11s-5 15 -2 23l62 144c5 12 19 17 32 12c12 -5 17 -19 12 -31l-48 -111h66v51c0 13 11 24 24 24s24 -11 24 -24v-51h8c13 0 24 -11 24 -24z" />
    <glyph glyph-name="circle-5-primary" unicode="&#xe0cf;" 
d="M352 143c0 -44 -35 -79 -79 -79h-50c-28 0 -53 18 -62 45c-4 12 3 26 15 30c13 4 27 -2 31 -15c2 -7 9 -12 16 -12h50c17 0 31 14 31 31c0 16 -12 29 -27 31l-88 10c-6 1 -12 4 -16 10c-4 5 -6 12 -5 18l17 88c2 12 12 20 24 20h103c13 0 24 -11 24 -24s-11 -24 -24 -24
h-83l-9 -43l62 -7c40 -5 70 -39 70 -79z" />
    <glyph glyph-name="circle-6-primary" unicode="&#xe0d0;" horiz-adv-x="640" 
d="M346 252c40 -11 70 -48 70 -92c0 -53 -43 -96 -96 -96s-96 43 -96 96c0 41 28 73 40 84l80 70c5 4 10 6 16 6c7 0 13 -3 18 -8c9 -10 8 -25 -2 -34zM320 112c26 0 48 22 48 48s-22 48 -48 48c-21 0 -40 -14 -46 -34c-1 -5 -2 -9 -2 -14c0 -26 22 -48 48 -48z" />
    <glyph glyph-name="circle-7-primary" unicode="&#xe0d1;" 
d="M349 285l-112 -208c-4 -8 -12 -13 -21 -13c-4 0 -8 1 -11 3c-12 6 -16 21 -10 32l93 173h-104c-13 0 -24 11 -24 24s11 24 24 24h144c8 0 16 -4 21 -12c4 -7 4 -16 0 -23z" />
    <glyph glyph-name="circle-8-primary" unicode="&#xe0d2;" 
d="M322 206c18 -15 30 -37 30 -62c0 -44 -36 -80 -80 -80h-32c-44 0 -80 36 -80 80c0 25 12 47 30 62c-9 12 -14 26 -14 42c0 40 32 72 72 72h16c40 0 72 -32 72 -72c0 -16 -5 -30 -14 -42zM248 272c-13 0 -24 -11 -24 -24s11 -24 24 -24h16c13 0 24 11 24 24s-11 24 -24 24
h-16zM272 112c18 0 32 14 32 32s-14 32 -32 32h-32c-18 0 -32 -14 -32 -32s14 -32 32 -32h32z" />
    <glyph glyph-name="circle-9-primary" unicode="&#xe0d3;" 
d="M256 320c53 0 96 -43 96 -96c0 -41 -28 -73 -40 -84l-80 -70c-5 -4 -10 -6 -16 -6c-7 0 -13 3 -18 8c-9 10 -8 25 2 34l30 26c-40 11 -70 48 -70 92c0 53 43 96 96 96zM302 210c1 5 2 9 2 14c0 26 -22 48 -48 48s-48 -22 -48 -48s22 -48 48 -48c21 0 40 14 46 34z" />
    <glyph glyph-name="circle-a-primary" unicode="&#xe0d4;" 
d="M216 168l40 88l40 -88h-80zM256 432c133 0 240 -107 240 -240s-107 -240 -240 -240s-240 107 -240 240s107 240 240 240zM362 82c12 6 17 20 12 32l-96 209c-8 17 -36 17 -44 0l-96 -209c-5 -12 0 -26 12 -32c12 -5 26 0 32 12l12 26h124l12 -26c4 -9 13 -14 22 -14
c3 0 7 1 10 2z" />
    <glyph glyph-name="circle-ampersand-primary" unicode="&#xe0d5;" 
d="M331 133l27 -29c8 -10 8 -25 -2 -34c-5 -4 -10 -6 -16 -6c-7 0 -13 3 -18 8l-19 20c-14 -18 -36 -28 -60 -28h-32c-37 0 -67 30 -67 67c0 20 9 39 25 52l30 24l-11 11c-11 12 -17 28 -17 44c0 32 26 58 58 58h23c32 0 58 -26 58 -58c0 -17 -8 -33 -22 -44l-20 -16l30 -33
l22 32c7 11 22 14 33 6c11 -7 14 -22 7 -33zM229 272c-6 0 -10 -4 -10 -10c0 -4 2 -8 5 -11l12 -14l22 18c2 2 4 4 4 7c0 6 -5 10 -10 10h-23zM268 125l2 3l-39 43l-32 -25c-4 -4 -7 -9 -7 -15c0 -11 8 -19 19 -19h32c10 0 20 5 25 13z" />
    <glyph glyph-name="circle-b-primary" unicode="&#xe0d6;" 
d="M304 244c0 -15 -13 -28 -28 -28h-68v56h68c15 0 28 -13 28 -28zM292 168c15 0 28 -13 28 -28s-13 -28 -28 -28h-84v56h84zM256 432c133 0 240 -107 240 -240s-107 -240 -240 -240s-240 107 -240 240s107 240 240 240zM292 64c42 0 76 34 76 76c0 25 -12 46 -30 60
c9 13 14 28 14 44c0 42 -34 76 -76 76h-92c-13 0 -24 -11 -24 -24v-208c0 -13 11 -24 24 -24h108z" />
    <glyph glyph-name="circle-book-open-primary" unicode="&#xe0d7;" 
d="M375 275c6 -2 9 -7 9 -13v-156c0 -5 -6 -8 -11 -6c-50 22 -89 3 -101 -4v183c10 4 25 9 44 9c18 0 38 -4 59 -13zM137 275c21 9 41 13 59 13c19 0 34 -5 44 -9v-183c-12 7 -51 26 -101 4c-5 -2 -11 1 -11 6v156c0 6 3 11 9 13z" />
    <glyph glyph-name="circle-bookmark-primary" unicode="&#xe0d8;" 
d="M352 64l-96 64l-96 -64v224c0 18 14 32 32 32h128c18 0 32 -14 32 -32v-224z" />
    <glyph glyph-name="circle-c-primary" unicode="&#xe0d9;" 
d="M311 285c-30 30 -82 30 -112 0c-31 -31 -31 -82 0 -113c15 -15 35 -24 56 -24s41 9 56 24c9 9 24 9 34 0c9 -9 9 -25 0 -34c-24 -24 -56 -38 -90 -38v0c-34 0 -66 14 -90 38c-49 50 -49 131 0 181c48 48 132 48 180 0c9 -10 9 -25 0 -34c-10 -9 -25 -9 -34 0z" />
    <glyph glyph-name="circle-calendar-primary" unicode="&#xe0da;" 
d="M128 91v133h256v-133c0 -15 -12 -27 -27 -27h-202c-15 0 -27 12 -27 27zM357 320c15 0 27 -12 27 -27v-37h-256v37c0 15 12 27 27 27h37v23c0 5 4 9 9 9h14c5 0 9 -4 9 -9v-23h64v23c0 5 4 9 9 9h14c5 0 9 -4 9 -9v-23h37z" />
    <glyph glyph-name="circle-camera-primary" unicode="&#xe0db;" 
d="M352 288c18 0 32 -14 32 -32v-128c0 -18 -14 -32 -32 -32h-192c-18 0 -32 14 -32 32v128c0 18 14 32 32 32h36l6 16c4 10 13 16 23 16h62c10 0 19 -6 23 -16l6 -16h36zM256 144c26 0 48 22 48 48s-22 48 -48 48s-48 -22 -48 -48s22 -48 48 -48z" />
    <glyph glyph-name="circle-d-primary" unicode="&#xe0dc;" 
d="M254 272c45 0 82 -36 82 -80s-37 -80 -82 -80h-46v160h46zM256 432c133 0 240 -107 240 -240s-107 -240 -240 -240s-240 107 -240 240s107 240 240 240zM254 64c72 0 130 57 130 128s-58 128 -130 128h-70c-13 0 -24 -11 -24 -24v-208c0 -13 11 -24 24 -24h70z" />
    <glyph glyph-name="circle-dashed-primary" unicode="&#xe0dd;" 
d="M17 176h64c3 -37 18 -70 40 -97l-45 -45c-34 39 -55 88 -59 142zM144 327l-46 45c39 34 88 56 142 59v-64c-36 -3 -70 -18 -96 -40zM437 350c33 -39 55 -88 58 -142h-64c-3 37 -17 70 -40 97zM272 17c37 3 70 18 97 40l45 -45c-38 -34 -88 -56 -142 -59v64z" />
    <glyph glyph-name="circle-e-primary" unicode="&#xe0de;" 
d="M328 272h-120v-56h88c13 0 24 -11 24 -24s-11 -24 -24 -24h-88v-56h120c13 0 24 -11 24 -24s-11 -24 -24 -24h-144c-13 0 -24 11 -24 24v208c0 13 11 24 24 24h144c13 0 24 -11 24 -24s-11 -24 -24 -24z" />
    <glyph glyph-name="circle-envelope-primary" unicode="&#xe0df;" 
d="M352 288c18 0 32 -14 32 -32v-12l-128 -51l-128 51v12c0 18 14 32 32 32h192zM256 160c2 0 4 0 6 1l122 49v-82c0 -18 -14 -32 -32 -32h-192c-18 0 -32 14 -32 32v82l122 -49c2 -1 4 -1 6 -1z" />
    <glyph glyph-name="circle-f-primary" unicode="&#xe0e0;" 
d="M328 320c13 0 24 -11 24 -24s-11 -24 -24 -24h-120v-64h88c13 0 24 -11 24 -24s-11 -24 -24 -24h-88v-72c0 -13 -11 -24 -24 -24s-24 11 -24 24v208c0 13 11 24 24 24h144z" />
    <glyph glyph-name="circle-g-primary" unicode="&#xe0e1;" horiz-adv-x="640" 
d="M428 208c13 0 24 -11 24 -24v-11v-4c-5 -24 -18 -48 -38 -68c-24 -24 -56 -37 -90 -37s-66 13 -91 38c-49 49 -49 131 0 181c48 47 128 50 179 4c10 -8 11 -24 2 -33c-9 -10 -24 -11 -34 -2c-32 28 -82 27 -113 -3c-31 -32 -31 -82 0 -114c31 -30 83 -30 113 0
c8 8 14 16 18 25h-50c-13 0 -24 11 -24 24s11 24 24 24h80z" />
    <glyph glyph-name="circle-half-primary" unicode="&#xe0e2;" 
d="M256 -48c-133 0 -240 107 -240 240s107 240 240 240v-480z" />
    <glyph glyph-name="circle-i-primary" unicode="&#xe0e3;" 
d="M328 272h-48v-160h48c13 0 24 -11 24 -24s-11 -24 -24 -24h-144c-13 0 -24 11 -24 24s11 24 24 24h48v160h-48c-13 0 -24 11 -24 24s11 24 24 24h144c13 0 24 -11 24 -24s-11 -24 -24 -24z" />
    <glyph glyph-name="circle-j-primary" unicode="&#xe0e4;" 
d="M312 320c13 0 24 -11 24 -24v-139c0 -51 -43 -93 -96 -93s-96 42 -96 93v11c0 13 11 24 24 24s24 -11 24 -24v-11c0 -25 22 -45 48 -45s48 20 48 45v139c0 13 11 24 24 24z" />
    <glyph glyph-name="circle-k-primary" unicode="&#xe0e5;" 
d="M345 313c9 -10 9 -25 0 -34l-72 -71c1 -1 2 -1 3 -2l72 -104c7 -11 5 -26 -6 -34c-5 -3 -9 -4 -14 -4c-8 0 -15 4 -20 10l-69 101l-31 -31v-56c0 -13 -11 -24 -24 -24s-24 11 -24 24v208c0 13 11 24 24 24s24 -11 24 -24v-85l103 102c10 9 25 9 34 0z" />
    <glyph glyph-name="circle-l-primary" unicode="&#xe0e6;" 
d="M328 112c13 0 24 -11 24 -24s-11 -24 -24 -24h-144c-13 0 -24 11 -24 24v208c0 13 11 24 24 24s24 -11 24 -24v-184h120z" />
    <glyph glyph-name="circle-m-primary" unicode="&#xe0e7;" 
d="M367 319c10 -3 17 -13 17 -23v-208c0 -13 -11 -24 -24 -24s-24 11 -24 24v134l-61 -84c-9 -13 -29 -13 -38 0l-61 84v-134c0 -13 -11 -24 -24 -24s-24 11 -24 24v208c0 10 7 20 17 23c9 3 20 0 26 -9l85 -117l85 117c6 8 16 12 26 9z" />
    <glyph glyph-name="circle-microphone-primary" unicode="&#xe0e8;" 
d="M256 144c-27 0 -48 21 -48 48v112c0 27 21 48 48 48s48 -21 48 -48v-112c0 -27 -21 -48 -48 -48zM376 224c4 0 8 -4 8 -8v-24c0 -65 -49 -118 -112 -126v-26c0 -4 -4 -8 -8 -8h-16c-4 0 -8 4 -8 8v26c-63 8 -112 61 -112 126v24c0 4 4 8 8 8h16c4 0 8 -4 8 -8v-21
c0 -48 35 -92 83 -98c59 -8 109 38 109 95v24c0 4 4 8 8 8h16z" />
    <glyph glyph-name="circle-microphone-lines-primary" unicode="&#xe0e9;" 
d="M256 144c-27 0 -48 21 -48 48v112c0 27 21 48 48 48s48 -21 48 -48h-40c-4 0 -8 -4 -8 -8v-16c0 -4 4 -8 8 -8h40v-32h-40c-4 0 -8 -4 -8 -8v-16c0 -4 4 -8 8 -8h40v-16c0 -27 -21 -48 -48 -48zM376 224c4 0 8 -4 8 -8v-24c0 -65 -49 -118 -112 -126v-26
c0 -4 -4 -8 -8 -8h-16c-4 0 -8 4 -8 8v26c-63 8 -112 61 -112 126v24c0 4 4 8 8 8h16c4 0 8 -4 8 -8v-21c0 -48 35 -92 83 -98c59 -8 109 38 109 95v24c0 4 4 8 8 8h16z" />
    <glyph glyph-name="circle-n-primary" unicode="&#xe0ea;" 
d="M328 320c13 0 24 -11 24 -24v-208c0 -10 -7 -20 -17 -23c-2 -1 -5 -1 -7 -1c-8 0 -15 4 -20 10l-100 145v-131c0 -13 -11 -24 -24 -24s-24 11 -24 24v208c0 10 7 20 17 23s21 -1 27 -9l100 -145v131c0 13 11 24 24 24z" />
    <glyph glyph-name="circle-o-primary" unicode="&#xe0eb;" 
d="M256 320c71 0 128 -57 128 -128s-57 -128 -128 -128s-128 57 -128 128s57 128 128 128zM256 112c44 0 80 36 80 80s-36 80 -80 80s-80 -36 -80 -80s36 -80 80 -80z" />
    <glyph glyph-name="circle-p-primary" unicode="&#xe0ec;" 
d="M280 320c49 0 88 -39 88 -88s-39 -88 -88 -88h-72v-56c0 -13 -11 -24 -24 -24s-24 11 -24 24v208c0 13 11 24 24 24h96zM280 192c22 0 40 18 40 40s-18 40 -40 40h-72v-80h72z" />
    <glyph glyph-name="circle-phone-primary" unicode="&#xe0ed;" 
d="M384 126l-12 -50c-2 -7 -8 -12 -15 -12c-126 0 -229 103 -229 229c0 7 5 13 12 15l50 12c8 1 15 -3 18 -9l24 -55c2 -6 1 -14 -5 -18l-27 -22c17 -35 45 -63 80 -80l22 27c4 6 12 7 18 5l55 -24c7 -3 10 -10 9 -18z" />
    <glyph glyph-name="circle-phone-flip-primary" unicode="&#xe0ee;" 
d="M137 144l55 24c6 2 14 1 18 -5l22 -27c35 17 63 45 80 80l-27 22c-6 4 -7 12 -5 18l24 54c3 7 10 11 17 10l51 -12c7 -2 12 -8 12 -15c0 -126 -103 -229 -229 -229c-7 0 -13 5 -15 12l-12 50c-1 8 2 15 9 18z" />
    <glyph glyph-name="circle-phone-hangup-primary" unicode="&#xe0ef;" 
d="M374 142l-55 22c-6 2 -10 9 -10 16l4 34c-37 13 -77 13 -113 0l3 -34c1 -7 -3 -14 -9 -16l-55 -22c-7 -3 -15 0 -19 6l-28 44c-3 6 -3 14 3 19c89 89 234 89 323 0c5 -5 6 -13 2 -19l-27 -44c-4 -6 -12 -9 -19 -6z" />
    <glyph glyph-name="circle-q-primary" unicode="&#xe0f0;" 
d="M256 320c71 0 128 -57 128 -128c0 -27 -8 -51 -22 -72l15 -15c9 -9 9 -25 0 -34c-5 -5 -11 -7 -17 -7s-12 2 -17 7l-15 15c-21 -14 -45 -22 -72 -22c-71 0 -128 57 -128 128s57 128 128 128zM327 155c5 11 9 24 9 37c0 44 -36 80 -80 80s-80 -36 -80 -80s36 -80 80 -80
c13 0 26 4 37 9l-30 30c-9 9 -9 25 0 34s25 9 34 0z" />
    <glyph glyph-name="circle-quarter-primary" unicode="&#xe0f1;" 
d="M256 192h-240c0 133 107 240 240 240v-240z" />
    <glyph glyph-name="circle-r-primary" unicode="&#xe0f2;" 
d="M368 240c0 -36 -24 -66 -57 -76l44 -62c8 -11 6 -26 -5 -33c-4 -4 -9 -5 -14 -5c-7 0 -15 3 -19 10l-63 86h-46v-72c0 -13 -11 -24 -24 -24s-24 11 -24 24v208c0 13 11 24 24 24h104c44 0 80 -36 80 -80zM288 208c18 0 32 14 32 32s-14 32 -32 32h-80v-64h80z" />
    <glyph glyph-name="circle-s-primary" unicode="&#xe0f3;" 
d="M263 215c39 -11 99 -28 88 -91c-4 -21 -16 -38 -34 -48c-15 -9 -33 -12 -51 -12c-36 0 -72 12 -91 19c-12 5 -18 19 -13 32c5 12 19 18 31 13c42 -16 82 -21 100 -11c6 4 9 8 11 15c2 16 -4 23 -54 37c-40 11 -100 27 -89 91c4 19 15 35 31 45c27 18 68 20 121 6
c13 -3 21 -16 18 -29s-17 -21 -29 -18c-53 14 -75 6 -84 1c-5 -3 -8 -8 -9 -14c-3 -15 4 -22 54 -36z" />
    <glyph glyph-name="circle-star-primary" unicode="&#xe0f4;" 
d="M401 217l-60 -58l15 -82c2 -15 -14 -26 -27 -19l-73 39l-74 -39c-13 -7 -29 4 -26 19l14 82l-60 58c-10 10 -4 28 10 31l83 12l37 74c6 13 25 13 32 0l37 -74l82 -12c15 -3 21 -21 10 -31z" />
    <glyph glyph-name="circle-t-primary" unicode="&#xe0f5;" 
d="M360 304c13 0 24 -11 24 -24s-11 -24 -24 -24h-80v-168c0 -13 -11 -24 -24 -24s-24 11 -24 24v168h-80c-13 0 -24 11 -24 24s11 24 24 24h208z" />
    <glyph glyph-name="circle-three-quarters-primary" unicode="&#xe0f6;" 
d="M496 192c0 -133 -107 -240 -240 -240s-240 107 -240 240s107 240 240 240v-240h240z" />
    <glyph glyph-name="circle-trash-primary" unicode="&#xe0f7;" 
d="M171 86l-11 170h192l-11 -170c0 -12 -11 -22 -24 -22h-122c-13 0 -24 10 -24 22zM352 320c9 0 16 -7 16 -16s-7 -16 -16 -16h-192c-9 0 -16 7 -16 16s7 16 16 16h48l6 12c1 2 4 4 7 4h70c3 0 6 -2 7 -4l6 -12h48z" />
    <glyph glyph-name="circle-u-primary" unicode="&#xe0f8;" 
d="M344 304c13 0 24 -11 24 -24v-123c0 -60 -50 -109 -112 -109s-112 49 -112 109v123c0 13 11 24 24 24s24 -11 24 -24v-123c0 -34 29 -61 64 -61s64 27 64 61v123c0 13 11 24 24 24z" />
    <glyph glyph-name="circle-v-primary" unicode="&#xe0f9;" 
d="M371 301c12 -5 16 -20 10 -32l-104 -208c-4 -8 -12 -13 -21 -13s-17 5 -21 13l-104 208c-6 12 -2 27 10 32c12 6 27 2 32 -10l83 -165l83 165c5 12 20 16 32 10z" />
    <glyph glyph-name="circle-video-primary" unicode="&#xe0fa;" 
d="M320 120c0 -13 -11 -24 -24 -24h-144c-13 0 -24 11 -24 24v144c0 13 11 24 24 24h144c13 0 24 -11 24 -24v-144zM416 141c0 -11 -12 -17 -20 -11l-44 31v62l44 31c8 6 20 0 20 -11v-102z" />
    <glyph glyph-name="circle-w-primary" unicode="&#xe0fb;" 
d="M383 303c13 -4 20 -17 16 -30l-64 -208c-3 -10 -12 -17 -23 -17v0c-11 0 -20 7 -23 18l-33 122l-33 -122c-3 -11 -12 -18 -23 -18c-10 0 -20 7 -23 17l-64 208c-4 13 3 26 16 30s26 -3 30 -16l39 -128l35 127c3 11 12 18 23 18s20 -7 23 -18l35 -127l39 128
c4 13 17 20 30 16z" />
    <glyph glyph-name="circle-waveform-lines-primary" unicode="&#xe0fc;" 
d="M144 288c9 0 16 -7 16 -16v-160c0 -9 -7 -16 -16 -16s-16 7 -16 16v160c0 9 7 16 16 16zM272 312c9 0 16 -7 16 -16v-208c0 -9 -7 -16 -16 -16s-16 7 -16 16v208c0 9 7 16 16 16zM208 248c9 0 16 -7 16 -16v-80c0 -9 -7 -16 -16 -16s-16 7 -16 16v80c0 9 7 16 16 16z
M400 224c9 0 16 -7 16 -16v-32c0 -9 -7 -16 -16 -16s-16 7 -16 16v32c0 9 7 16 16 16zM336 264c9 0 16 -7 16 -16v-112c0 -9 -7 -16 -16 -16s-16 7 -16 16v112c0 9 7 16 16 16z" />
    <glyph glyph-name="circle-x-primary" unicode="&#xe0fd;" 
d="M360 314c10 -8 11 -23 2 -33l-75 -89l75 -89c9 -10 8 -25 -2 -33c-5 -4 -11 -6 -16 -6c-7 0 -14 3 -18 9l-70 82l-70 -82c-4 -6 -11 -9 -18 -9c-5 0 -11 2 -16 6c-10 8 -11 23 -2 33l75 89l-75 89c-9 10 -8 25 3 33c10 9 25 8 33 -3l70 -82l70 83c8 10 23 11 34 2z" />
    <glyph glyph-name="circle-y-primary" unicode="&#xe0fe;" 
d="M342 296c8 10 24 11 34 2c10 -8 11 -24 2 -34l-98 -114v-78c0 -13 -11 -24 -24 -24s-24 11 -24 24v78l-98 114c-9 10 -8 26 2 34c10 9 26 8 34 -2l86 -100z" />
    <glyph glyph-name="circle-z-primary" unicode="&#xe0ff;" 
d="M328 112c13 0 24 -11 24 -24s-11 -24 -24 -24h-144c-9 0 -17 5 -21 13s-4 17 1 25l118 170h-98c-13 0 -24 11 -24 24s11 24 24 24h144c9 0 17 -5 21 -13s4 -17 -1 -25l-118 -170h98z" />
    <glyph glyph-name="clipboard-medical-primary" unicode="&#xe100;" horiz-adv-x="384" 
d="M256 384c35 0 64 -29 64 -64v-16c0 -9 -7 -16 -16 -16h-224c-9 0 -16 7 -16 16v16c0 35 29 64 64 64c0 35 29 64 64 64s64 -29 64 -64zM192 360c13 0 24 11 24 24s-11 24 -24 24s-24 -11 -24 -24s11 -24 24 -24zM272 160c9 0 16 -7 16 -16v-32c0 -9 -7 -16 -16 -16h-48
v-48c0 -9 -7 -16 -16 -16h-32c-9 0 -16 7 -16 16v48h-48c-9 0 -16 7 -16 16v32c0 9 7 16 16 16h48v48c0 9 7 16 16 16h32c9 0 16 -7 16 -16v-48h48z" />
    <glyph glyph-name="clock-desk-primary" unicode="&#xe101;" horiz-adv-x="448" 
d="M274 141l-64 48c-6 4 -10 11 -10 19v120c0 13 11 24 24 24s24 -11 24 -24v-108l54 -41c11 -8 13 -23 5 -33c-5 -7 -12 -10 -19 -10c-5 0 -10 2 -14 5zM224 0c124 0 224 100 224 224v-240c0 -26 -22 -48 -48 -48h-352c-26 0 -48 22 -48 48v240c0 -124 100 -224 224 -224z
" />
    <glyph glyph-name="cloud-word-primary" unicode="&#xe102;" horiz-adv-x="640" 
d="M128 144c0 9 7 16 16 16h128c9 0 16 -7 16 -16s-7 -16 -16 -16h-128c-9 0 -16 7 -16 16zM208 64h-32c-9 0 -16 7 -16 16s7 16 16 16h32c9 0 16 -7 16 -16s-7 -16 -16 -16zM368 64h-96c-9 0 -16 7 -16 16s7 16 16 16h96c9 0 16 -7 16 -16s-7 -16 -16 -16zM464 64h-32
c-9 0 -16 7 -16 16s7 16 16 16h32c9 0 16 -7 16 -16s-7 -16 -16 -16zM496 128h-160c-9 0 -16 7 -16 16s7 16 16 16h160c9 0 16 -7 16 -16s-7 -16 -16 -16z" />
    <glyph glyph-name="coffee-bean-primary" unicode="&#xe103;" horiz-adv-x="448" 
d="M366 357l-20 -33c-31 -52 -79 -92 -133 -120c-58 -30 -106 -76 -140 -131l-5 -9c-13 -22 -46 -21 -56 2c-35 82 9 185 82 257c73 74 176 116 259 79c17 -7 23 -29 13 -45z" />
    <glyph glyph-name="coffee-beans-primary" unicode="&#xe104;" 
d="M151 256c70 -14 105 -86 105 -160c0 -62 -25 -125 -75 -150c-13 -6 -27 4 -24 17c6 31 10 82 -14 141c-25 61 -17 114 -10 140c2 8 10 13 18 12zM98 229c-8 -45 -3 -90 15 -133c27 -66 16 -121 8 -148c-3 -8 -10 -13 -18 -12c-69 15 -103 87 -103 160c0 61 25 123 74 149
c12 6 26 -3 24 -16z" />
    <glyph glyph-name="colon-sign-primary" unicode="&#xe105;" horiz-adv-x="384" 
d="M226 0c-52 0 -100 20 -137 56s-57 85 -57 136s20 100 57 136s85 56 137 56c43 0 83 -13 116 -38c12 -9 13 -26 3 -37l-23 -23c-9 -8 -21 -9 -31 -3c-43 30 -107 26 -145 -12c-21 -21 -33 -49 -33 -79s12 -58 33 -79c38 -38 102 -42 145 -12c10 6 23 5 31 -3l23 -23
c10 -11 9 -28 -3 -37c-33 -25 -73 -38 -116 -38z" />
    <glyph glyph-name="command-primary" unicode="&#xe106;" horiz-adv-x="448" 
d="M352 160c53 0 96 -43 96 -96s-43 -96 -96 -96s-96 43 -96 96v32h-64v64h160zM352 32c18 0 32 14 32 32s-14 32 -32 32h-32v-32c0 -18 14 -32 32 -32zM256 288v-64h-160c-53 0 -96 43 -96 96s43 96 96 96s96 -43 96 -96v-32h64zM128 288v32c0 18 -14 32 -32 32
s-32 -14 -32 -32s14 -32 32 -32h32z" />
    <glyph glyph-name="comment-arrow-down-primary" unicode="&#xe107;" 
d="M353 191l-80 -80c-9 -9 -25 -9 -34 0l-80 80c-9 9 -9 25 0 34c5 5 11 7 17 7s12 -2 17 -7l39 -39v102c0 13 11 24 24 24s24 -11 24 -24v-102l39 39c9 9 25 9 34 0s9 -25 0 -34z" />
    <glyph glyph-name="comment-arrow-up-primary" unicode="&#xe108;" 
d="M353 191c-5 -5 -11 -7 -17 -7s-12 2 -17 7l-39 39v-102c0 -13 -11 -24 -24 -24s-24 11 -24 24v102l-39 -39c-9 -9 -25 -9 -34 0s-9 25 0 34l80 80c9 9 25 9 34 0l80 -80c9 -9 9 -25 0 -34z" />
    <glyph glyph-name="comment-captions-primary" unicode="&#xe109;" 
d="M144 160c9 0 16 -7 16 -16s-7 -16 -16 -16h-32c-9 0 -16 7 -16 16s7 16 16 16h32zM224 208c0 -9 -7 -16 -16 -16h-128c-9 0 -16 7 -16 16s7 16 16 16h128c9 0 16 -7 16 -16zM304 160c9 0 16 -7 16 -16s-7 -16 -16 -16h-96c-9 0 -16 7 -16 16s7 16 16 16h96zM432 224
c9 0 16 -7 16 -16s-7 -16 -16 -16h-160c-9 0 -16 7 -16 16s7 16 16 16h160zM400 160c9 0 16 -7 16 -16s-7 -16 -16 -16h-32c-9 0 -16 7 -16 16s7 16 16 16h32z" />
    <glyph glyph-name="comment-image-primary" unicode="&#xe10a;" 
d="M414 137c-2 -6 -8 -9 -14 -9h-288c-6 0 -12 4 -15 9s-1 13 3 18l56 64c3 3 7 5 12 5s9 -2 12 -5l23 -26l77 105c3 4 8 6 13 6s10 -2 13 -6l107 -144c3 -5 4 -12 1 -17z" />
    <glyph glyph-name="comment-middle-primary" unicode="&#xe10b;" 
 />
    <glyph glyph-name="comment-middle-top-primary" unicode="&#xe10c;" 
 />
    <glyph glyph-name="comment-quote-primary" unicode="&#xe10d;" 
d="M360 304c13 0 24 -11 24 -24v-88c0 -44 -36 -80 -80 -80h-4c-7 0 -12 5 -12 12v24c0 7 5 12 12 12h4c18 0 32 14 32 32v16h-40c-13 0 -24 11 -24 24v48c0 13 11 24 24 24h64zM216 304c13 0 24 -11 24 -24v-88c0 -44 -36 -80 -80 -80h-4c-7 0 -12 5 -12 12v24
c0 7 5 12 12 12h4c18 0 32 14 32 32v16h-40c-13 0 -24 11 -24 24v48c0 13 11 24 24 24h64z" />
    <glyph glyph-name="comment-text-primary" unicode="&#xe10e;" 
d="M368 288v-16c0 -9 -7 -16 -16 -16h-72v-144c0 -9 -7 -16 -16 -16h-16c-9 0 -16 7 -16 16v144h-72c-9 0 -16 7 -16 16v16c0 9 7 16 16 16h192c9 0 16 -7 16 -16z" />
    <glyph glyph-name="conveyor-belt-empty-primary" unicode="&#xe10f;" horiz-adv-x="640" 
 />
    <glyph glyph-name="cruzeiro-sign-primary" unicode="&#xe110;" horiz-adv-x="384" 
d="M224 -32c-60 0 -116 23 -158 66c-43 42 -66 98 -66 158s23 116 66 158c42 43 98 66 158 66c47 0 93 -15 130 -42c16 -11 18 -34 4 -48l-12 -12c-11 -11 -28 -12 -41 -3c-24 16 -52 25 -81 25c-38 0 -75 -15 -102 -42s-42 -64 -42 -102s15 -75 42 -102s64 -42 102 -42
c29 0 57 9 81 25c13 9 30 8 41 -3l12 -12c14 -14 12 -37 -4 -48c-37 -27 -83 -42 -130 -42z" />
    <glyph glyph-name="d-primary" unicode="&#xe111;" horiz-adv-x="384" 
 />
    <glyph glyph-name="delete-right-primary" unicode="&#xe112;" horiz-adv-x="576" 
d="M190 192l-55 55c-9 9 -9 25 0 34s25 9 34 0l55 -55l55 55c9 9 25 9 34 0s9 -25 0 -34l-55 -55l55 -55c9 -9 9 -25 0 -34c-5 -5 -11 -7 -17 -7s-12 2 -17 7l-55 55l-55 -55c-5 -5 -11 -7 -17 -7s-12 2 -17 7c-9 9 -9 25 0 34z" />
    <glyph glyph-name="diagram-stankey-primary" unicode="&#xe113;" horiz-adv-x="640" 
d="M608 384v-64c0 -18 -14 -32 -32 -32h-172l-57 -96h-315c-18 0 -32 -14 -32 -32v64c0 18 14 32 32 32h204l77 129c12 19 33 31 55 31h208c18 0 32 -14 32 -32z" />
    <glyph glyph-name="diagram-venn-primary" unicode="&#xe114;" horiz-adv-x="640" 
d="M224 416c124 0 224 -100 224 -224s-100 -224 -224 -224s-224 100 -224 224s100 224 224 224zM258 176c-1 5 -2 11 -2 16s1 11 2 16h124c-1 17 -5 33 -12 48h-100c5 12 11 22 19 32h62c-29 39 -75 64 -127 64c-88 0 -160 -72 -160 -160s72 -160 160 -160
c52 0 98 25 127 64h-62c-8 10 -14 20 -19 32h100c7 15 11 31 12 48h-124z" />
    <glyph glyph-name="dial-primary" unicode="&#xe115;" horiz-adv-x="576" 
d="M411 261c23 -28 37 -63 37 -101c0 -88 -72 -160 -160 -160s-160 72 -160 160s72 160 160 160c38 0 73 -14 101 -37l-112 -112c-7 -6 -6 -15 0 -22s16 -7 22 0z" />
    <glyph glyph-name="dial-high-primary" unicode="&#xe116;" horiz-adv-x="576" 
d="M272 160c0 -8.83105 7.16895 -16 16 -16h159c-3.44434 -37.5723 -19.9746 -71.5664 -45 -97c-28.8301 -29.1592 -68.8564 -47.373 -113.06 -47.373c-87.7549 0 -159 71.2451 -159 159c0 87.7539 71.2451 159 159 159c81.8838 0 149.394 -62.0322 158.06 -141.627h-159
c-8.83105 0 -16 -7.16895 -16 -16z" />
    <glyph glyph-name="dial-low-primary" unicode="&#xe117;" horiz-adv-x="576" 
d="M402 273c29.1904 -28.9922 47.2441 -69.0107 47.2441 -113.361c0 -88.3066 -71.6934 -160 -160 -160c-83.0303 0 -151.374 63.3828 -159.244 144.361h158c8.83105 0 16 7.16895 16 16s-7.16895 16 -16 16h-158c7.27148 81.0332 75.4648 144.82 158.377 144.82
c44.498 0 84.751 -18.3184 113.623 -47.8203z" />
    <glyph glyph-name="dial-max-primary" unicode="&#xe118;" horiz-adv-x="576" 
d="M299 171c-2.79004 2.36816 -6.4043 3.78906 -10.3467 3.78906c-8.83105 0 -16 -7.16895 -16 -16c0 -3.68555 1.24902 -7.08203 3.34668 -9.78906l112 -112c-27.5166 -21.5674 -62.335 -34.5859 -99.9746 -34.5859c-89.4102 0 -162 72.5898 -162 162s72.5898 162 162 162
s162 -72.5898 162 -162c0 -40.2393 -14.7031 -77.0723 -39.0254 -105.414z" />
    <glyph glyph-name="dial-med-primary" unicode="&#xe119;" horiz-adv-x="576" 
d="M304 318c80.7285 -8.11328 144.162 -76.3408 144.162 -159.192c0 -88.3066 -71.6934 -160 -160 -160c-88.3057 0 -160 71.6934 -160 160c0 82.8516 63.1094 151.079 143.838 159.192v-158c0 -8.83105 7.16895 -16 16 -16s16 7.16895 16 16v158z" />
    <glyph glyph-name="dial-med-low-primary" unicode="&#xe11a;" horiz-adv-x="576" 
d="M288 320c87.5752 -0.210938 158.673 -71.2666 158.673 -158.891c0 -87.7549 -71.2451 -159 -159 -159s-159 71.2451 -159 159c0 37.8252 13.2373 72.583 35.3271 99.8906l112 -112c2.79004 -2.36816 6.4043 -3.78906 10.3467 -3.78906c8.83105 0 16 7.16895 16 16
c0 3.68555 -1.24902 7.08203 -3.34668 9.78906l-112 112c27.3174 22.9385 62.6064 36.8535 101 37z" />
    <glyph glyph-name="dial-min-primary" unicode="&#xe11b;" horiz-adv-x="576" 
d="M288 320c0.448242 0.00390625 0.773438 0.0537109 1.22266 0.0537109c88.3066 0 160 -71.6943 160 -160c0 -88.3066 -71.6934 -160 -160 -160c-38.8545 0 -74.4922 13.8789 -102.223 36.9463l112 112c1.4873 2.42871 2.33691 5.29004 2.33691 8.34375
c0 8.83105 -7.16895 16 -16 16c-3.05371 0 -5.9082 -0.856445 -8.33691 -2.34375l-112 -112c-23.085 27.6025 -37.0508 63.2402 -37.0508 102.003c0 87.7549 71.2451 159 159 159c0.350586 0 0.701172 -0.000976562 1.05078 -0.00292969z" />
    <glyph glyph-name="display-primary" unicode="&#xe11c;" horiz-adv-x="576" 
d="M424 -16c13 0 24 -11 24 -24s-11 -24 -24 -24h-272c-13 0 -24 11 -24 24s11 24 24 24h72l16 48h96l16 -48h72zM64 384h448v-288h-448v288z" />
    <glyph glyph-name="display-code-primary" unicode="&#xe11d;" horiz-adv-x="576" 
d="M424 -16c13 0 24 -11 24 -24s-11 -24 -24 -24h-272c-13 0 -24 11 -24 24s11 24 24 24h72l16 48h96l16 -48h72zM64 384h448v-288h-448v288zM210 214l-34 34l34 34c8 8 8 20 0 28s-20 8 -28 0l-48 -48c-8 -8 -8 -20 0 -28l48 -48c4 -4 9 -6 14 -6s10 2 14 6c8 8 8 20 0 28z
M335 309c4 10 -2 22 -12 26s-22 -2 -26 -12l-56 -152c-4 -10 2 -22 12 -26c2 -1 5 -1 7 -1c8 0 16 5 19 13zM442 234c8 8 8 20 0 28l-48 48c-8 8 -20 8 -28 0s-8 -20 0 -28l34 -34l-34 -34c-8 -8 -8 -20 0 -28c4 -4 9 -6 14 -6s10 2 14 6z" />
    <glyph glyph-name="display-medical-primary" unicode="&#xe11e;" horiz-adv-x="576" 
d="M424 -16c13 0 24 -11 24 -24s-11 -24 -24 -24h-272c-13 0 -24 11 -24 24s11 24 24 24h72l16 48h96l16 -48h72zM64 384h448v-288h-448v288zM384 224v32c0 9 -7 16 -16 16h-48v48c0 9 -7 16 -16 16h-32c-9 0 -16 -7 -16 -16v-48h-48c-9 0 -16 -7 -16 -16v-32
c0 -9 7 -16 16 -16h48v-48c0 -9 7 -16 16 -16h32c9 0 16 7 16 16v48h48c9 0 16 7 16 16z" />
    <glyph glyph-name="display-slash-primary" unicode="&#xe11f;" horiz-adv-x="640" 
d="M616 -64c-5 0 -10 2 -15 5l-592 464c-10 8 -12 23 -4 34c8 10 23 12 34 4l592 -464c10 -8 12 -23 4 -34c-5 -6 -12 -9 -19 -9z" />
    <glyph glyph-name="dolphin-primary" unicode="&#xe120;" 
d="M128 300c2 11 11 20 23 20c14 0 24 -11 24 -24s-10 -24 -24 -24c-12 0 -21 9 -23 20v8z" />
    <glyph glyph-name="dong-sign-primary" unicode="&#xe121;" horiz-adv-x="384" 
d="M352 352c0 -9 -7 -16 -16 -16h-16v48h16c9 0 16 -7 16 -16v-16zM208 336c-9 0 -16 7 -16 16v16c0 9 7 16 16 16h48v-48h-48zM368 16c9 0 16 -7 16 -16v-16c0 -9 -7 -16 -16 -16h-352c-9 0 -16 7 -16 16v16c0 9 7 16 16 16h352z" />
    <glyph glyph-name="e-primary" unicode="&#xe122;" horiz-adv-x="320" 
 />
    <glyph glyph-name="engine-primary" unicode="&#xe123;" horiz-adv-x="640" 
d="M506 237c3.66797 -2.93262 6.00781 -7.43066 6.00781 -12.4883c0 -0.170898 -0.00292969 -0.341797 -0.0078125 -0.511719v-176c0 -26.4922 -21.5078 -48 -48 -48h-211c-0.0400391 0 -0.0849609 -0.00683594 -0.125 -0.00683594
c-13.2158 0 -25.1914 5.35352 -33.875 14.0068l-50 50h-41c-26.4922 0 -48 21.5078 -48 48v144c0 26.4922 21.5078 48 48 48h277c0.226562 0.00292969 0.478516 -0.0166016 0.706055 -0.0166016c11.0244 0 21.1865 -3.72461 29.2939 -9.9834zM192 168
c13.2461 0 24 10.7539 24 24s-10.7539 24 -24 24s-24 -10.7539 -24 -24s10.7539 -24 24 -24zM288 168c13.2461 0 24 10.7539 24 24s-10.7539 24 -24 24s-24 -10.7539 -24 -24s10.7539 -24 24 -24zM384 168c13.2461 0 24 10.7539 24 24s-10.7539 24 -24 24
s-24 -10.7539 -24 -24s10.7539 -24 24 -24z" />
    <glyph glyph-name="envelope-dot-primary" unicode="&#xe124;" horiz-adv-x="576" 
d="M512 448c35 0 64 -29 64 -64s-29 -64 -64 -64s-64 29 -64 64s29 64 64 64z" />
    <glyph glyph-name="envelopes-primary" unicode="&#xe125;" horiz-adv-x="640" 
d="M80 48c0 -18 14 -32 32 -32h400c0 -26 -22 -48 -48 -48h-368c-35 0 -64 29 -64 64v272c0 26 22 48 48 48v-304zM396 202l212 165v-40l-193 -151c-14 -11 -30 -16 -47 -16s-33 5 -47 16l-193 151v40l212 -165c17 -13 39 -13 56 0z" />
    <glyph glyph-name="eye-dropper-full-primary" unicode="&#xe126;" 
d="M90 103l127 127l49 -49l-127 -127c-1 -1 -3 -2 -5 -2h-46v46c0 2 1 4 2 5zM484 448c37 -38 37 -98 0 -136l-77 -77l13 -13c9 -9 9 -24 0 -34l-41 -41c-9 -9 -25 -9 -34 0l-162 162c-9 9 -9 25 0 34l41 41c9 9 25 9 34 0l13 -13l77 77c38 38 98 38 136 0z" />
    <glyph glyph-name="eye-dropper-half-primary" unicode="&#xe127;" 
d="M90 103l53 53h98l-102 -102c-1 -1 -3 -2 -5 -2h-46v46c0 2 1 4 2 5zM484 448c37 -38 37 -98 0 -136l-77 -77l13 -13c9 -9 9 -24 0 -34l-41 -41c-9 -9 -25 -9 -34 0l-162 162c-9 9 -9 25 0 34l41 41c9 9 25 9 34 0l13 -13l77 77c38 38 98 38 136 0z" />
    <glyph glyph-name="f-primary" unicode="&#xe128;" horiz-adv-x="320" 
 />
    <glyph glyph-name="file-heart-primary" unicode="&#xe129;" horiz-adv-x="384" 
d="M256 320h128v-336c0 -26 -22 -48 -48 -48h-288c-26 0 -48 22 -48 48v416c0 26 22 48 48 48h208v-128zM285 106c24 25 22 66 -5 89c-23 20 -58 16 -80 -6l-8 -9l-9 9c-21 22 -56 26 -79 6c-27 -23 -29 -64 -5 -89l83 -86c6 -5 14 -5 20 0z" />
    <glyph glyph-name="files-primary" unicode="&#xe12a;" horiz-adv-x="448" 
d="M96 80v320c0 26 22 48 48 48h208v-96h96v-272c0 -26 -22 -48 -48 -48h-256c-26 0 -48 22 -48 48z" />
    <glyph glyph-name="films-primary" unicode="&#xe12b;" horiz-adv-x="576" 
d="M528 416c26 0 48 -22 48 -48v-256c0 -26 -22 -48 -48 -48h-384c-26 0 -48 22 -48 48v256c0 26 22 48 48 48h384zM200 121v30c0 5 -4 9 -9 9h-30c-5 0 -9 -4 -9 -9v-30c0 -5 4 -9 9 -9h30c5 0 9 4 9 9zM200 225v30c0 5 -4 9 -9 9h-30c-5 0 -9 -4 -9 -9v-30c0 -5 4 -9 9 -9
h30c5 0 9 4 9 9zM200 329v30c0 5 -4 9 -9 9h-30c-5 0 -9 -4 -9 -9v-30c0 -5 4 -9 9 -9h30c5 0 9 4 9 9zM416 128v80c0 9 -7 16 -16 16h-128c-9 0 -16 -7 -16 -16v-80c0 -9 7 -16 16 -16h128c9 0 16 7 16 16zM416 272v80c0 9 -7 16 -16 16h-128c-9 0 -16 -7 -16 -16v-80
c0 -9 7 -16 16 -16h128c9 0 16 7 16 16zM520 121v30c0 5 -4 9 -9 9h-30c-5 0 -9 -4 -9 -9v-30c0 -5 4 -9 9 -9h30c5 0 9 4 9 9zM520 225v30c0 5 -4 9 -9 9h-30c-5 0 -9 -4 -9 -9v-30c0 -5 4 -9 9 -9h30c5 0 9 4 9 9zM520 329v30c0 5 -4 9 -9 9h-30c-5 0 -9 -4 -9 -9v-30
c0 -5 4 -9 9 -9h30c5 0 9 4 9 9z" />
    <glyph glyph-name="filter-list-primary" unicode="&#xe12c;" 
d="M347 348l-123 -145v-185c0 -15 -16 -23 -28 -15l-60 42c-5 4 -8 9 -8 15v143l-123 145c-12 14 -1 36 17 36h308c18 0 29 -22 17 -36z" />
    <glyph glyph-name="filters-primary" unicode="&#xe12d;" horiz-adv-x="640" 
d="M611 416c24 0 38 -27 23 -46l-154 -185v-161c0 -19 -22 -31 -38 -20l-80 56c-6 5 -10 12 -10 20v105l-154 185c-15 19 -1 46 23 46h390z" />
    <glyph glyph-name="florin-sign-primary" unicode="&#xe12e;" horiz-adv-x="384" 
d="M32 208c0 9 7 16 16 16h112l-23 -64h-89c-9 0 -16 7 -16 16v32zM336 224c9 0 16 -7 16 -16v-32c0 -9 -7 -16 -16 -16h-112l23 64h89z" />
    <glyph glyph-name="folder-blank-primary" unicode="&#xe12f;" 
 />
    <glyph glyph-name="folder-bookmark-primary" unicode="&#xe130;" 
d="M512 304v-288c0 -26 -22 -48 -48 -48h-416c-26 0 -48 22 -48 48v352c0 26 22 48 48 48h160l64 -64h16v-240c0 -13 16 -21 26 -12l54 43l54 -43c10 -9 26 -1 26 12v240h16c26 0 48 -22 48 -48z" />
    <glyph glyph-name="folder-gear-primary" unicode="&#xe131;" 
d="M464 352c26 0 48 -22 48 -48v-288c0 -26 -22 -48 -48 -48h-416c-26 0 -48 22 -48 48v352c0 26 22 48 48 48h160l64 -64h192zM367 96c4 8 8 16 10 24c1 3 0 7 -4 9l-23 14c1 5 2 11 2 17s-1 12 -2 17l23 14c4 2 5 6 4 9c-2 8 -5 16 -10 24s-10 15 -16 21c-2 3 -6 3 -10 1
l-23 -13c-9 7 -19 13 -30 17v27c0 4 -3 7 -6 8c-8 2 -17 3 -26 3s-18 -1 -26 -3c-3 -1 -6 -4 -6 -8v-27c-11 -4 -21 -10 -30 -17l-23 13c-4 2 -8 2 -10 -1c-6 -6 -11 -13 -16 -21c-4 -8 -8 -16 -10 -24c-1 -3 0 -7 4 -9l23 -14c-1 -5 -2 -11 -2 -17s1 -12 2 -17l-23 -14
c-4 -2 -5 -6 -4 -9c2 -8 6 -16 10 -24c5 -8 10 -15 16 -21c2 -3 6 -3 10 -1l23 13c9 -7 19 -13 30 -17v-27c0 -4 3 -7 6 -8c8 -2 17 -3 26 -3s18 1 26 3c3 1 6 4 6 8v27c11 4 21 10 30 17l23 -13c4 -2 8 -2 10 1c6 6 11 13 16 21zM256 200c22 0 40 -18 40 -40
s-18 -40 -40 -40s-40 18 -40 40s18 40 40 40z" />
    <glyph glyph-name="folder-grid-primary" unicode="&#xe132;" 
d="M464 352c26 0 48 -22 48 -48v-288c0 -26 -22 -48 -48 -48h-416c-26 0 -48 22 -48 48v352c0 26 22 48 48 48h160l64 -64h192zM176 128v64c0 9 -7 16 -16 16h-64c-9 0 -16 -7 -16 -16v-64c0 -9 7 -16 16 -16h64c9 0 16 7 16 16zM304 128v64c0 9 -7 16 -16 16h-64
c-9 0 -16 -7 -16 -16v-64c0 -9 7 -16 16 -16h64c9 0 16 7 16 16zM432 128v64c0 9 -7 16 -16 16h-64c-9 0 -16 -7 -16 -16v-64c0 -9 7 -16 16 -16h64c9 0 16 7 16 16z" />
    <glyph glyph-name="folder-heart-primary" unicode="&#xe133;" 
d="M464 352c26 0 48 -22 48 -48v-288c0 -26 -22 -48 -48 -48h-416c-26 0 -48 22 -48 48v352c0 26 22 48 48 48h160l64 -64h192zM349 154c24 25 22 66 -5 89c-23 20 -58 16 -80 -6l-8 -9l-9 9c-21 22 -56 26 -79 6c-27 -23 -29 -64 -5 -89l83 -86c6 -5 14 -5 20 0z" />
    <glyph glyph-name="folder-image-primary" unicode="&#xe134;" 
d="M464 352c26 0 48 -22 48 -48v-288c0 -26 -22 -48 -48 -48h-416c-26 0 -48 22 -48 48v352c0 26 22 48 48 48h160l64 -64h192zM128 256c-18 0 -32 -14 -32 -32s14 -32 32 -32s32 14 32 32s-14 32 -32 32zM414 40c3 6 3 12 -1 17l-106 160c-3 4 -8 7 -14 7
c-5 0 -10 -3 -13 -7l-63 -94l-22 30c-3 5 -8 7 -13 7s-10 -2 -13 -7l-70 -96c-3 -4 -4 -11 -1 -16c2 -6 8 -9 14 -9h288c6 0 11 3 14 8z" />
    </font>
</defs>
</svg>
